Вы используете незарегистрированную версию компонента "Вкладки"!

Поиск

(Modal Music, Hard Bop, Post-Bop) John Coltrane - Coltrane - 1962 (1997), FLAC (tracks+.cue), lossless

(Modal Music, Hard Bop, Post-Bop) John Coltrane - Coltrane - 1962 (1997), FLAC (tracks+.cue), lossless
Треклист:
John Coltrane - Coltrane
Жанр: Modal Music, Hard Bop, Post-Bop
Страна-производитель диска: США
Год издания: 1997
Издатель (лейбл): Impulse!
Номер по каталогу: IMPD-215
Аудиокодек: FLAC (*.flac)
Тип рипа: tracks+.cue
Битрейт аудио: lossless
Продолжительность: 47:23
Источник (релизер): pyrochild (what)
Наличие сканов в содержимом раздачи: да (от европейского издания)
Треклист:
01. Out of This World (Arlen-Mercer) - 14:05
02. Soul Eyes (Waldron) - 5:27
03. The Inch Worm (Loesser) - 6:19
04. Tunji (Coltrane) - 6:36
05. Miles' Mode (Coltrane) - 7:34
06. Big Nick (Coltrane) - 4:08
07. Up 'Gainst the Wall (Coltrane) - 3:14
Состав:
John Coltrane - tenor saxophone, soprano saxophone
McCoy Tyner - piano
Jimmy Garrison - bass
Elvin Jones - drums
Recorded at the Van Gelder Studio, Englewood Cliffs, NJ on April 11 (#3,6), June 19 (#1,2), June 20 (#5), June 29 (#4), and September 18 (#7), 1962.
Remastered by Erick Labson.
 
Лог создания рипа
Exact Audio Copy V0.99 prebeta 5 from 4. May 2009
EAC extraction logfile from 18. September 2010, 9:43
John Coltrane / Coltrane
Used drive : Optiarc DVD RW AD-7561S Adapter: 1 ID: 0
Read mode : Secure
Utilize accurate stream : Yes
Defeat audio cache : Yes
Make use of C2 pointers : No
Read offset correction : 6
Overread into Lead-In and Lead-Out : No
Fill up missing offset samples with silence : Yes
Delete leading and trailing silent blocks : No
Null samples used in CRC calculations : Yes
Used interface : Native Win32 interface for Win NT & 2000
Gap handling : Appended to previous track
Used output format : User Defined Encoder
Selected bitrate : 768 kBit/s
Quality : High
Add ID3 tag : No
Command line compressor : C:\Program Files (x86)\Exact Audio Copy\FLAC\FLAC.EXE
Additional command line options : -8 -s -V -T "ARTIST=%a" -T "TITLE=%t" -T "ALBUM=%g" -T "DATE=%y" -T "TRACKNUMBER=%n" -T "GENRE=%m" -T "COMMENT=%e" %s -o %d
TOC of the extracted CD
Track | Start | Length | Start sector | End sector
---------------------------------------------------------
1 | 0:00.00 | 14:05.02 | 0 | 63376
2 | 14:05.02 | 5:26.38 | 63377 | 87864
3 | 19:31.40 | 6:18.42 | 87865 | 116256
4 | 25:50.07 | 6:35.65 | 116257 | 145946
5 | 32:25.72 | 7:34.15 | 145947 | 180011
6 | 40:00.12 | 4:07.50 | 180012 | 198586
7 | 44:07.62 | 3:13.65 | 198587 | 213126
Track 1
Filename C:\Users\Zach\Desktop\John Coltrane - (1962) Coltrane [FLAC]\01 - Out Of This World.wav
Pre-gap length 0:00:02.00
Peak level 100.0 %
Track quality 100.0 %
Test CRC 1D3FF443
Copy CRC 1D3FF443
Accurately ripped (confidence 15) [78D9D876]
Copy OK
Track 2
Filename C:\Users\Zach\Desktop\John Coltrane - (1962) Coltrane [FLAC]\02 - Soul Eyes.wav
Pre-gap length 0:00:02.37
Peak level 81.2 %
Track quality 100.0 %
Test CRC ACE1CDE0
Copy CRC ACE1CDE0
Accurately ripped (confidence 15) [A1EE5D5B]
Copy OK
Track 3
Filename C:\Users\Zach\Desktop\John Coltrane - (1962) Coltrane [FLAC]\03 - The Inch Worm.wav
Pre-gap length 0:00:02.50
Peak level 99.2 %
Track quality 99.9 %
Test CRC EC6A32E9
Copy CRC EC6A32E9
Accurately ripped (confidence 15) [564303A3]
Copy OK
Track 4
Filename C:\Users\Zach\Desktop\John Coltrane - (1962) Coltrane [FLAC]\04 - Tunji.wav
Pre-gap length 0:00:02.50
Peak level 97.9 %
Track quality 100.0 %
Test CRC 46F52856
Copy CRC 46F52856
Accurately ripped (confidence 15) [04479388]
Copy OK
Track 5
Filename C:\Users\Zach\Desktop\John Coltrane - (1962) Coltrane [FLAC]\05 - Miles' Mode.wav
Pre-gap length 0:00:02.72
Peak level 99.3 %
Track quality 100.0 %
Test CRC 68D109D3
Copy CRC 68D109D3
Accurately ripped (confidence 14) [FAA11272]
Copy OK
Track 6
Filename C:\Users\Zach\Desktop\John Coltrane - (1962) Coltrane [FLAC]\06 - Big Nick.wav
Pre-gap length 0:00:02.47
Peak level 100.0 %
Track quality 100.0 %
Test CRC E0A96716
Copy CRC E0A96716
Accurately ripped (confidence 15) [41B6851A]
Copy OK
Track 7
Filename C:\Users\Zach\Desktop\John Coltrane - (1962) Coltrane [FLAC]\07 - Up 'Gainst The Wall.wav
Pre-gap length 0:00:01.70
Peak level 100.0 %
Track quality 100.0 %
Test CRC 3174EDD3
Copy CRC 3174EDD3
Accurately ripped (confidence 15) [2A9817FA]
Copy OK
All tracks accurately ripped
No errors occurred
End of status report
 
Содержание индексной карты (.CUE)
REM GENRE Jazz
REM DATE 1962
REM DISCID 600B1907
REM COMMENT "ExactAudioCopy v0.99pb5"
PERFORMER "John Coltrane"
TITLE "Coltrane"
FILE "01 - Out of This World.wav" WAVE
TRACK 01 AUDIO
TITLE "Out of This World"
PERFORMER "John Coltrane"
INDEX 01 00:00:00
TRACK 02 AUDIO
TITLE "Soul Eyes"
PERFORMER "John Coltrane"
INDEX 00 14:02:40
FILE "02 - Soul Eyes.wav" WAVE
INDEX 01 00:00:00
TRACK 03 AUDIO
TITLE "The Inch Worm"
PERFORMER "John Coltrane"
INDEX 00 05:23:63
FILE "03 - The Inch Worm.wav" WAVE
INDEX 01 00:00:00
TRACK 04 AUDIO
TITLE "Tunji"
PERFORMER "John Coltrane"
INDEX 00 06:15:67
FILE "04 - Tunji.wav" WAVE
INDEX 01 00:00:00
TRACK 05 AUDIO
TITLE "Miles' Mode"
PERFORMER "John Coltrane"
INDEX 00 06:32:68
FILE "05 - Miles' Mode.wav" WAVE
INDEX 01 00:00:00
TRACK 06 AUDIO
TITLE "Big Nick"
PERFORMER "John Coltrane"
INDEX 00 07:31:43
FILE "06 - Big Nick.wav" WAVE
INDEX 01 00:00:00
TRACK 07 AUDIO
TITLE "Up 'Gainst the Wall"
PERFORMER "John Coltrane"
INDEX 00 04:05:55
FILE "07 - Up 'Gainst the Wall.wav" WAVE
INDEX 01 00:00:00
 
Отчет CUETools
[CUETools log; Date: 07.05.2013 17:10:56; Version: 2.1.4]
[CTDB TOCID: ZbP8tbPMGxWv2bUuh0GcUfWNBik-] found.
Track | CTDB Status
1 | (4/4) Accurately ripped
2 | (4/4) Accurately ripped
3 | (4/4) Accurately ripped
4 | (4/4) Accurately ripped
5 | (4/4) Accurately ripped
6 | (4/4) Accurately ripped
7 | (4/4) Accurately ripped
[AccurateRip ID: 000f5674-0057e536-600b1907] found.
Track [ CRC | V2 ] Status
01 [78d9d876|85ca0564] (17+04/21) Accurately ripped
02 [a1ee5d5b|ee6a9841] (17+04/21) Accurately ripped
03 [564303a3|ab553d39] (17+04/21) Accurately ripped
04 [04479388|1f9197f8] (17+04/21) Accurately ripped
05 [faa11272|48b67c4d] (16+04/20) Accurately ripped
06 [41b6851a|f6c38670] (17+04/21) Accurately ripped
07 [2a9817fa|8ed7ec58] (17+04/21) Accurately ripped
Track Peak [ CRC32 ] [W/O NULL] [ LOG ]
-- 99,9 [14865025] [822F2005]
01 99,9 [1D3FF443] [79E10AD7] CRC32
02 81,2 [ACE1CDE0] [1A127D97] CRC32
03 99,2 [EC6A32E9] [3FBE310B] CRC32
04 97,9 [46F52856] [E80250E6] CRC32
05 99,3 [68D109D3] [BB0EADA7] CRC32
06 99,9 [E0A96716] [6D9BA0A7] CRC32
07 99,9 [3174EDD3] [B50B10F1] CRC32
 
Review by Michael G. Nastos
Considered by many to be his finest single album, Coltrane finds John Coltrane displaying all of the exciting elements that sparked brilliance and allowed his fully formed instrumental voice to shine through in the most illuminating manner. On tenor saxophone, he's simply masterful, offering the burgeoning sheets of sound philosophy into endless weavings of melodic and tuneful displays of inventive, thoughtful, driven phrases. Coltrane also plays a bit of soprano saxophone as a primer for his more exploratory work to follow. Meanwhile, bassist Jimmy Garrison, drummer Elvin Jones, and especially the stellar McCoy Tyner have integrated their passionate dynamics into the inner whole of the quartet. The result is a most focused effort, a relatively popular session to both his fans or latecomers, with five selections that are brilliantly conceived and rendered. "Out of This World," at over 14 minutes in modal trim, is a powerful statement, stretched over Tyner's marvelous and deft chords, the churning rhythms conjured by Jones, and the vocal style Coltrane utilizes as he circles the wagons on this classic melody, including a nifty key change. "Tunji" is a mysterious, easily rendered piece in 4/4 which speaks to the spiritual path Coltrane tred, a bit riled up at times while Tyner remains serene. Hard bop is still in the back of their collective minds during "Miles' Mode," a sliver of a melody that jumps into jam mode in a free-for-all blowing session, while the converse is to be found in Mal Waldron's "Soul Eyes," the quintessential ballad and impressive here for the way Coltrane's holds notes, emotion, and expressive intellectuality. On soprano you can tell Coltrane is close to taking complete control of his newly found voicings, as a playful, jaunty "The Inch Worm" in 3/4 time is only slightly strained, but in which he finds complete communion with the others. Even more than any platitudes one can heap on this extraordinary recording, it historically falls between the albums Olé Coltrane and Impressions -- completing a triad of studio efforts that are as definitive as anything Coltrane ever produced, and highly representative of him in his prime.
(Modal Music/Post-Bop) John Coltrane - Coltrane [Deluxe Edition - 2CD] - 1962, APE (image+.cue), lossless
(Avant-garde / Hard-Bop) The John Coltrane Quartet - Coltrane 1962 [Analogue Productions Remastered 2010 SACD], FLAC (tracks +.cue) lossless
(Free Jazz,Modern Free,Post-Bop)[LP][24/96] John Coltrane - Coltrane - 1962, FLAC (tracks)
[SACD-R][OF]The John Coltrane Quartet - Coltrane - 1962 (Analogue Productions Remastered 2010)(Hard Bop, Saxophone Jazz)
Any questions -> support@pro-jazz.com. По всем вопросам пишите -> support@pro-jazz.com
12:54
146
Нет комментариев. Ваш будет первым!