Вы используете незарегистрированную версию компонента "Вкладки"!

Поиск

(free jazz) Raymond MacDonald, Gunter Baby Sommer - Delphinius & Lyra 2007, FLAC (tracks+.cue), lossless

(free jazz) Raymond MacDonald, Gunter Baby Sommer - Delphinius & Lyra 2007, FLAC (tracks+.cue), lossless
Треклист:


Raymond MacDonald, Gunter Baby Sommer
Delphinius & Lyra 2007
Жанр: free jazz
Год выпуска: 2007
Издатель (лейбл):Clean Feed / CF086CD
Формат: FLAC (tracks+.cue)
Битрейт аудио: lossless
Продолжительность 59`07
Источник: what.cd, 6060842
Alto Saxophone, Soprano Saxophone – Raymond MacDonald
Drums, Percussion – Günter Baby Sommer
Recorded on 8 September 2005 at the Centre for Contemporary Art, Glasgow

tracks

1 GIO And The Dresden Free Team 2:45
2 I Would Like To Buy A Solo 6:28
3 I'm Ok 7:31
4 Down At The Tonne 5:37
5 Socialistic Hip Shit 7:30
6 Peter's Red Shoes 9:47
7 3am Dijereedon't 6:11
8 Parked On The Positive Side Of Remembrance 8:13


 
.log
X Lossless Decoder version 20130407 (143.0)
XLD extraction logfile from 2013-05-05 12:57:03 +0400
Raymond MacDonald, Günter Baby Sommer / Delphinius & Lyra
Used drive : HL-DT-ST DVDRW GX30N (revision RP09)
Media type : Pressed CD
Ripper mode : XLD Secure Ripper
Disable audio cache : OK for the drive with a cache less than 1375KiB
Make use of C2 pointers : NO
Read offset correction : 6
Max retry count : 20
Gap status : Analyzed, Appended
TOC of the extracted CD
Track | Start | Length | Start sector | End sector
---------------------------------------------------------
1 | 00:00:00 | 07:45:28 | 0 | 34902
2 | 07:45:28 | 06:28:61 | 34903 | 64063
3 | 14:14:14 | 07:31:40 | 64064 | 97928
4 | 21:45:54 | 05:37:56 | 97929 | 123259
5 | 27:23:35 | 07:30:64 | 123260 | 157073
6 | 34:54:24 | 09:47:31 | 157074 | 201129
7 | 44:41:55 | 06:11:53 | 201130 | 229007
8 | 50:53:33 | 08:13:14 | 229008 | 265996
List of alternate offset correction values
# | Absolute | Relative | Confidence
------------------------------------------
1 | -12 | -18 | 1
AccurateRip Summary (DiscID: 0011e775-0077ba06-720dda08)
Track 01 : OK (v2, confidence 1/1, with different offset)
Track 02 : OK (v2, confidence 1/1, with different offset)
Track 03 : OK (v2, confidence 1/1, with different offset)
Track 04 : OK (v2, confidence 1/1, with different offset)
Track 05 : OK (v2, confidence 1/1, with different offset)
Track 06 : OK (v2, confidence 1/1, with different offset)
Track 07 : OK (v2, confidence 1/1, with different offset)
Track 08 : OK (v2, confidence 1/1, with different offset)
->All tracks accurately ripped.
All Tracks
Album gain : -4.02 dB
Peak : 1.000000
Statistics
Read error : 0
Jitter error (maybe fixed) : 0
Retry sector count : 0
Damaged sector count : 0
Track 01
Filename : /Users/anch/Music/FLAC/Raymond MacDonald, Günter Baby Sommer - 2007 - Delphinius & Lyra [FLAC]/01 - GIO and the Dresden Free Team.flac
/Users/anch/Music/FLAC/Raymond MacDonald, Günter Baby Sommer - 2007 - Delphinius & Lyra [MP3 320]/01 - GIO and the Dresden Free Team.mp3
/Users/anch/Music/FLAC/Raymond MacDonald, Günter Baby Sommer - 2007 - Delphinius & Lyra [MP3 V0]/01 - GIO and the Dresden Free Team.mp3
Pre-gap length : 00:02:00
Track gain : -5.43 dB
Peak : 1.000000
CRC32 hash (test run) : AB8C5117
CRC32 hash : AB8C5117
CRC32 hash (skip zero) : 73A1890B
AccurateRip v1 signature : 1B566EF3
AccurateRip v2 signature : C3E6F9C9 (D1157632 w/correction)
->Accurately ripped with different offset (v2, confidence 1/1, offset -18)
Statistics
Read error : 0
Jitter error (maybe fixed) : 0
Retry sector count : 0
Damaged sector count : 0
Track 02
Filename : /Users/anch/Music/FLAC/Raymond MacDonald, Günter Baby Sommer - 2007 - Delphinius & Lyra [FLAC]/02 - I Would Like To Buy a Solo.flac
/Users/anch/Music/FLAC/Raymond MacDonald, Günter Baby Sommer - 2007 - Delphinius & Lyra [MP3 320]/02 - I Would Like To Buy a Solo.mp3
/Users/anch/Music/FLAC/Raymond MacDonald, Günter Baby Sommer - 2007 - Delphinius & Lyra [MP3 V0]/02 - I Would Like To Buy a Solo.mp3
Pre-gap length : 00:02:00
Track gain : -2.06 dB
Peak : 1.000000
CRC32 hash (test run) : B952991E
CRC32 hash : B952991E
CRC32 hash (skip zero) : 2C0CF436
AccurateRip v1 signature : 99478B81
AccurateRip v2 signature : 2C7F51B3 (54AE98C8 w/correction)
->Accurately ripped with different offset (v2, confidence 1/1, offset -18)
Statistics
Read error : 0
Jitter error (maybe fixed) : 0
Retry sector count : 0
Damaged sector count : 0
Track 03
Filename : /Users/anch/Music/FLAC/Raymond MacDonald, Günter Baby Sommer - 2007 - Delphinius & Lyra [FLAC]/03 - I'm OK.flac
/Users/anch/Music/FLAC/Raymond MacDonald, Günter Baby Sommer - 2007 - Delphinius & Lyra [MP3 320]/03 - I'm OK.mp3
/Users/anch/Music/FLAC/Raymond MacDonald, Günter Baby Sommer - 2007 - Delphinius & Lyra [MP3 V0]/03 - I'm OK.mp3
Pre-gap length : 00:02:00
Track gain : 3.17 dB
Peak : 0.918976
CRC32 hash (test run) : 0062961B
CRC32 hash : 0062961B
CRC32 hash (skip zero) : D5C576A9
AccurateRip v1 signature : 28A21414
AccurateRip v2 signature : FCEB36C7 (1E1A3268 w/correction)
->Accurately ripped with different offset (v2, confidence 1/1, offset -18)
Statistics
Read error : 0
Jitter error (maybe fixed) : 0
Retry sector count : 0
Damaged sector count : 0
Track 04
Filename : /Users/anch/Music/FLAC/Raymond MacDonald, Günter Baby Sommer - 2007 - Delphinius & Lyra [FLAC]/04 - Down At the Tonne.flac
/Users/anch/Music/FLAC/Raymond MacDonald, Günter Baby Sommer - 2007 - Delphinius & Lyra [MP3 320]/04 - Down At the Tonne.mp3
/Users/anch/Music/FLAC/Raymond MacDonald, Günter Baby Sommer - 2007 - Delphinius & Lyra [MP3 V0]/04 - Down At the Tonne.mp3
Pre-gap length : 00:02:00
Track gain : -6.45 dB
Peak : 1.000000
CRC32 hash (test run) : B38E378D
CRC32 hash : B38E378D
CRC32 hash (skip zero) : 369D52D8
AccurateRip v1 signature : 07F8D9CA
AccurateRip v2 signature : EFB62D66 (3232C418 w/correction)
->Accurately ripped with different offset (v2, confidence 1/1, offset -18)
Statistics
Read error : 0
Jitter error (maybe fixed) : 0
Retry sector count : 0
Damaged sector count : 0
Track 05
Filename : /Users/anch/Music/FLAC/Raymond MacDonald, Günter Baby Sommer - 2007 - Delphinius & Lyra [FLAC]/05 - Socialistic Hip Shit.flac
/Users/anch/Music/FLAC/Raymond MacDonald, Günter Baby Sommer - 2007 - Delphinius & Lyra [MP3 320]/05 - Socialistic Hip Shit.mp3
/Users/anch/Music/FLAC/Raymond MacDonald, Günter Baby Sommer - 2007 - Delphinius & Lyra [MP3 V0]/05 - Socialistic Hip Shit.mp3
Pre-gap length : 00:02:00
Track gain : -4.49 dB
Peak : 1.000000
CRC32 hash (test run) : A6B74145
CRC32 hash : A6B74145
CRC32 hash (skip zero) : 11E74F05
AccurateRip v1 signature : 15409B8A
AccurateRip v2 signature : E4F1552B (A3E8EBCF w/correction)
->Accurately ripped with different offset (v2, confidence 1/1, offset -18)
Statistics
Read error : 0
Jitter error (maybe fixed) : 0
Retry sector count : 0
Damaged sector count : 0
Track 06
Filename : /Users/anch/Music/FLAC/Raymond MacDonald, Günter Baby Sommer - 2007 - Delphinius & Lyra [FLAC]/06 - Peter's Red Shoes.flac
/Users/anch/Music/FLAC/Raymond MacDonald, Günter Baby Sommer - 2007 - Delphinius & Lyra [MP3 320]/06 - Peter's Red Shoes.mp3
/Users/anch/Music/FLAC/Raymond MacDonald, Günter Baby Sommer - 2007 - Delphinius & Lyra [MP3 V0]/06 - Peter's Red Shoes.mp3
Pre-gap length : 00:02:00
Track gain : 2.59 dB
Peak : 0.970490
CRC32 hash (test run) : 54077E89
CRC32 hash : 54077E89
CRC32 hash (skip zero) : E977B6B3
AccurateRip v1 signature : 9AC66764
AccurateRip v2 signature : A40EF781 (41B1774C w/correction)
->Accurately ripped with different offset (v2, confidence 1/1, offset -18)
Statistics
Read error : 0
Jitter error (maybe fixed) : 0
Retry sector count : 0
Damaged sector count : 0
Track 07
Filename : /Users/anch/Music/FLAC/Raymond MacDonald, Günter Baby Sommer - 2007 - Delphinius & Lyra [FLAC]/07 - 3am Dijereedon't.flac
/Users/anch/Music/FLAC/Raymond MacDonald, Günter Baby Sommer - 2007 - Delphinius & Lyra [MP3 320]/07 - 3am Dijereedon't.mp3
/Users/anch/Music/FLAC/Raymond MacDonald, Günter Baby Sommer - 2007 - Delphinius & Lyra [MP3 V0]/07 - 3am Dijereedon't.mp3
Pre-gap length : 00:02:00
Track gain : -2.27 dB
Peak : 0.992279
CRC32 hash (test run) : BA67F7E9
CRC32 hash : BA67F7E9
CRC32 hash (skip zero) : 0D8C870F
AccurateRip v1 signature : 5509E10F
AccurateRip v2 signature : 87EBC346 (02279C0A w/correction)
->Accurately ripped with different offset (v2, confidence 1/1, offset -18)
Statistics
Read error : 0
Jitter error (maybe fixed) : 0
Retry sector count : 0
Damaged sector count : 0
Track 08
Filename : /Users/anch/Music/FLAC/Raymond MacDonald, Günter Baby Sommer - 2007 - Delphinius & Lyra [FLAC]/08 - Parked on the Positive Side of Remembrance.flac
/Users/anch/Music/FLAC/Raymond MacDonald, Günter Baby Sommer - 2007 - Delphinius & Lyra [MP3 320]/08 - Parked on the Positive Side of Remembrance.mp3
/Users/anch/Music/FLAC/Raymond MacDonald, Günter Baby Sommer - 2007 - Delphinius & Lyra [MP3 V0]/08 - Parked on the Positive Side of Remembrance.mp3
Pre-gap length : 00:02:00
Track gain : -1.41 dB
Peak : 1.000000
CRC32 hash (test run) : 47C685A2
CRC32 hash : 47C685A2
CRC32 hash (skip zero) : 5FB340D7
AccurateRip v1 signature : 9BBEFC24
AccurateRip v2 signature : 8EA82AC7 (B62D822A w/correction)
->Accurately ripped with different offset (v2, confidence 1/1, offset -18)
Statistics
Read error : 0
Jitter error (maybe fixed) : 0
Retry sector count : 0
Damaged sector count : 0
No errors occurred
End of status report
 
.cue
TITLE "Delphinius & Lyra"
PERFORMER "Raymond MacDonald, Günter Baby Sommer"
REM GENRE "Free Jazz"
REM DATE "2007"
REM DISCID 720DDA08
REM REPLAYGAIN_ALBUM_GAIN -4.02 dB
REM REPLAYGAIN_ALBUM_PEAK 1.000000
FILE "01 - GIO and the Dresden Free Team.flac" WAVE
TRACK 01 AUDIO
TITLE "GIO and the Dresden Free Team"
PERFORMER "Raymond MacDonald, Günter Baby Sommer"
SONGWRITER "Günter Baby Sommer, Raymond MacDonald"
FLAGS DCP
REM REPLAYGAIN_TRACK_GAIN -5.43 dB
REM REPLAYGAIN_TRACK_PEAK 1.000000
INDEX 01 00:00:00
TRACK 02 AUDIO
TITLE "I Would Like To Buy a Solo"
PERFORMER "Raymond MacDonald, Günter Baby Sommer"
SONGWRITER "Günter Baby Sommer, Raymond MacDonald"
FLAGS DCP
REM REPLAYGAIN_TRACK_GAIN -2.06 dB
REM REPLAYGAIN_TRACK_PEAK 1.000000
INDEX 00 07:43:28
FILE "02 - I Would Like To Buy a Solo.flac" WAVE
INDEX 01 00:00:00
TRACK 03 AUDIO
TITLE "I'm OK"
PERFORMER "Raymond MacDonald, Günter Baby Sommer"
SONGWRITER "Günter Baby Sommer, Raymond MacDonald"
FLAGS DCP
REM REPLAYGAIN_TRACK_GAIN 3.17 dB
REM REPLAYGAIN_TRACK_PEAK 0.918976
INDEX 00 06:26:61
FILE "03 - I'm OK.flac" WAVE
INDEX 01 00:00:00
TRACK 04 AUDIO
TITLE "Down At the Tonne"
PERFORMER "Raymond MacDonald, Günter Baby Sommer"
SONGWRITER "Günter Baby Sommer, Raymond MacDonald"
FLAGS DCP
REM REPLAYGAIN_TRACK_GAIN -6.45 dB
REM REPLAYGAIN_TRACK_PEAK 1.000000
INDEX 00 07:29:40
FILE "04 - Down At the Tonne.flac" WAVE
INDEX 01 00:00:00
TRACK 05 AUDIO
TITLE "Socialistic Hip Shit"
PERFORMER "Raymond MacDonald, Günter Baby Sommer"
SONGWRITER "Günter Baby Sommer, Raymond MacDonald"
FLAGS DCP
REM REPLAYGAIN_TRACK_GAIN -4.49 dB
REM REPLAYGAIN_TRACK_PEAK 1.000000
INDEX 00 05:35:56
FILE "05 - Socialistic Hip Shit.flac" WAVE
INDEX 01 00:00:00
TRACK 06 AUDIO
TITLE "Peter's Red Shoes"
PERFORMER "Raymond MacDonald, Günter Baby Sommer"
SONGWRITER "Günter Baby Sommer, Raymond MacDonald"
FLAGS DCP
REM REPLAYGAIN_TRACK_GAIN 2.59 dB
REM REPLAYGAIN_TRACK_PEAK 0.970490
INDEX 00 07:28:64
FILE "06 - Peter's Red Shoes.flac" WAVE
INDEX 01 00:00:00
TRACK 07 AUDIO
TITLE "3am Dijereedon't"
PERFORMER "Raymond MacDonald, Günter Baby Sommer"
SONGWRITER "Günter Baby Sommer, Raymond MacDonald"
FLAGS DCP
REM REPLAYGAIN_TRACK_GAIN -2.27 dB
REM REPLAYGAIN_TRACK_PEAK 0.992279
INDEX 00 09:45:31
FILE "07 - 3am Dijereedon't.flac" WAVE
INDEX 01 00:00:00
TRACK 08 AUDIO
TITLE "Parked on the Positive Side of Remembrance"
PERFORMER "Raymond MacDonald, Günter Baby Sommer"
SONGWRITER "Günter Baby Sommer, Raymond MacDonald"
FLAGS DCP
REM REPLAYGAIN_TRACK_GAIN -1.41 dB
REM REPLAYGAIN_TRACK_PEAK 1.000000
INDEX 00 06:09:53
FILE "08 - Parked on the Positive Side of Remembrance.flac" WAVE
INDEX 01 00:00:00

другие релизы
Any questions -> support@pro-jazz.com. По всем вопросам пишите -> support@pro-jazz.com
12:52
97
Нет комментариев. Ваш будет первым!