Вы используете незарегистрированную версию компонента "Вкладки"!

Поиск

(Free Jazz, Jazz-Funk) Ronald Shannon Jackson & The Decoding Society - Man Dance - 1982, FLAC (tracks+.cue) lossless

Треклист:
Ronald Shannon Jackson & The Decoding Society / Man Dance
Жанр: Free Jazz, Jazz-Funk
Страна-производитель диска: US
Год издания диска: 1982
Издатель (лейбл): Antilles
Номер по каталогу: 422-846 397-2
Страна: US
Аудио кодек: FLAC (*.flac)
Тип рипа: tracks+.cue
Битрейт аудио: lossless
Продолжительность: 41:09
Источник (релизер): what.cd
Наличие сканов в содержимом раздачи: да
Треклист:
1. Man Dance 4:31
2. Iola 5:23
3. Spanking 3:07
4. Catman 6:44
5. The Art Of Levitation 1:24
6. Belly Button 4:45
7. Giraffe 3:07
8. When Souls Speak 5:47
9. Alice In The Congo 6:09
 
Лог создания рипа
EAC extraction logfile from 19. September 2007, 13:56 for CD
Ronald Shannon Jackson & The Decoding Society / Man Dance
Used drive : PLEXTOR DVD-ROM PX-116A2 Adapter: 3 ID: 0
Read mode : Secure with NO C2, accurate stream, disable cache
Read offset correction : 102
Overread into Lead-In and Lead-Out : No
Used output format : Internal WAV Routines
44.100 Hz; 16 Bit; Stereo
Other options :
Fill up missing offset samples with silence : Yes
Delete leading and trailing silent blocks : No
Installed external ASPI interface
Track 1
Filename H:\upload\Ronald Shannon Jackson & The Decoding Society\Man Dance\01 - Man dance.wav
Pre-gap length 0:00:02.32
Peak level 95.7 %
Track quality 100.0 %
Test CRC 7A953391
Copy CRC 7A953391
Copy OK
Track 2
Filename H:\upload\Ronald Shannon Jackson & The Decoding Society\Man Dance\02 - Iola.wav
Pre-gap length 0:00:01.32
Peak level 96.4 %
Track quality 100.0 %
Test CRC 963AAA24
Copy CRC 963AAA24
Copy OK
Track 3
Filename H:\upload\Ronald Shannon Jackson & The Decoding Society\Man Dance\03 - Spanking.wav
Pre-gap length 0:00:00.33
Peak level 97.7 %
Track quality 99.9 %
Test CRC 6C5A1AAE
Copy CRC 6C5A1AAE
Copy OK
Track 4
Filename H:\upload\Ronald Shannon Jackson & The Decoding Society\Man Dance\04 - Catman.wav
Peak level 100.0 %
Track quality 99.9 %
Test CRC 83C48E61
Copy CRC 83C48E61
Copy OK
Track 5
Filename H:\upload\Ronald Shannon Jackson & The Decoding Society\Man Dance\05 - The art of levitation.wav
Pre-gap length 0:00:00.53
Peak level 97.7 %
Track quality 100.0 %
Test CRC C88D8B56
Copy CRC C88D8B56
Copy OK
Track 6
Filename H:\upload\Ronald Shannon Jackson & The Decoding Society\Man Dance\06 - Belly button.wav
Pre-gap length 0:00:01.38
Peak level 97.7 %
Track quality 100.0 %
Test CRC A4F06A1B
Copy CRC A4F06A1B
Copy OK
Track 7
Filename H:\upload\Ronald Shannon Jackson & The Decoding Society\Man Dance\07 - Giraffe.wav
Peak level 93.0 %
Track quality 99.9 %
Test CRC CA7ECBAF
Copy CRC CA7ECBAF
Copy OK
Track 8
Filename H:\upload\Ronald Shannon Jackson & The Decoding Society\Man Dance\08 - When souls speak.wav
Peak level 75.0 %
Track quality 100.0 %
Test CRC CAC73099
Copy CRC CAC73099
Copy OK
Track 9
Filename H:\upload\Ronald Shannon Jackson & The Decoding Society\Man Dance\09 - Alice in the Congo.wav
Pre-gap length 0:00:00.15
Peak level 100.0 %
Track quality 100.0 %
Test CRC B5AEFA9D
Copy CRC B5AEFA9D
Copy OK
No errors occured
End of status report
 
Содержание индексной карты (.CUE)
REM GENRE Jazz
REM DATE 1982
REM DISCID 6D09A609
REM COMMENT "ExactAudioCopy v0.95b3"
PERFORMER "Ronald Shannon Jackson & The Decoding Society"
TITLE "Man Dance"
FILE "01 - Man dance.wav" WAVE
TRACK 01 AUDIO
TITLE "Man dance"
PERFORMER "Ronald Shannon Jackson & The Decoding Society"
PREGAP 00:00:32
INDEX 01 00:00:00
TRACK 02 AUDIO
TITLE "Iola"
PERFORMER "Ronald Shannon Jackson & The Decoding Society"
INDEX 00 04:32:58
FILE "02 - Iola.wav" WAVE
INDEX 01 00:00:00
TRACK 03 AUDIO
TITLE "Spanking"
PERFORMER "Ronald Shannon Jackson & The Decoding Society"
INDEX 00 05:25:30
FILE "03 - Spanking.wav" WAVE
INDEX 01 00:00:00
FILE "04 - Catman.wav" WAVE
TRACK 04 AUDIO
TITLE "Catman"
PERFORMER "Ronald Shannon Jackson & The Decoding Society"
INDEX 01 00:00:00
TRACK 05 AUDIO
TITLE "The art of levitation"
PERFORMER "Ronald Shannon Jackson & The Decoding Society"
INDEX 00 06:42:30
FILE "05 - The art of levitation.wav" WAVE
INDEX 01 00:00:00
TRACK 06 AUDIO
TITLE "Belly button"
PERFORMER "Ronald Shannon Jackson & The Decoding Society"
INDEX 00 01:23:57
FILE "06 - Belly button.wav" WAVE
INDEX 01 00:00:00
FILE "07 - Giraffe.wav" WAVE
TRACK 07 AUDIO
TITLE "Giraffe"
PERFORMER "Ronald Shannon Jackson & The Decoding Society"
INDEX 01 00:00:00
FILE "08 - When souls speak.wav" WAVE
TRACK 08 AUDIO
TITLE "When souls speak"
PERFORMER "Ronald Shannon Jackson & The Decoding Society"
INDEX 01 00:00:00
TRACK 09 AUDIO
TITLE "Alice in the Congo"
PERFORMER "Ronald Shannon Jackson & The Decoding Society"
INDEX 00 05:48:47
FILE "09 - Alice in the Congo.wav" WAVE
INDEX 01 00:00:00
 
Лог проверки качества
d:\>d:\aucdtect -d/-m0 d:\zzz\*.wav
auCDtect: CD records authenticity detector, version 0.8.2
Copyright (c) 2004 Oleg Berngardt. All rights reserved.
Copyright (c) 2004 Alexander Djourik. All rights reserved.
------------------------------------------------------------
Processing file: [00. 01 - Man dance.wav]
------------------------------------------------------------
This track looks like CDDA with probability 100%
------------------------------------------------------------
Processing file: [00. 02 - Iola.wav]
------------------------------------------------------------
This track looks like CDDA with probability 100%
------------------------------------------------------------
Processing file: [00. 03 - Spanking.wav]
------------------------------------------------------------
This track looks like CDDA with probability 100%
------------------------------------------------------------
Processing file: [00. 04 - Catman.wav]
------------------------------------------------------------
This track looks like CDDA with probability 100%
------------------------------------------------------------
Processing file: [00. 05 - The art of levitation.wav]
------------------------------------------------------------
This track looks like CDDA with probability 100%
------------------------------------------------------------
Processing file: [00. 06 - Belly button.wav]
------------------------------------------------------------
This track looks like CDDA with probability 100%
------------------------------------------------------------
Processing file: [00. 07 - Giraffe.wav]
------------------------------------------------------------
This track looks like CDDA with probability 100%
------------------------------------------------------------
Processing file: [00. 08 - When souls speak.wav]
------------------------------------------------------------
This track looks like CDDA with probability 100%
------------------------------------------------------------
Processing file: [00. 09 - Alice in the Congo.wav]
------------------------------------------------------------
This track looks like CDDA with probability 100%
------------------------------------------------------------
Final Conclusion:
------------------------------------------------------------
These tracks looks like CDDA with probability 100%
 
Скриншот спектра частот
Доп. информация:
 
Album Info
(P)(C)1982 Island Records Inc.
All compositions by Ronald Shannon Jackson
Produced by David Breskin & Ronald Shannon Jackson
Recorded live in the studio by Neal Teeman and Akili Walker
Decoded by Ron Saint Germain at Electric Lady Studios, NYC, June 1982.
Ronald Shannon Jackson plays Sonor drums & Paiste cymbals
 
Состав
Henry Scott: trumpet & flugelhorn
Zane Massey: tenor, alto & soprano saxophones
Vernon Reid: electric guitar, steel guitar, Roland guitar synthesizer, banjo
Melvin Gibbs: electric bass
Reverend Bruce Johnson: fretless electric bass, electric bass
Ronald Shannon Jackson: drums
On tr. 1, 2 & 8 David Gordon replaces Henry Scott and Lee Rozie is added on tenor and soprano saxophones
Any questions - support@pro-jazz.com. Есть вопросы - support@pro-jazz.com
04:21
290
Нет комментариев. Ваш будет первым!