Вы используете незарегистрированную версию компонента "Вкладки"!

Поиск

(Modern Composition) Anthony Braxton - Piano Music (1968-2000) (Genevieve Foccroulle)- 2008, FLAC (tracks+.cue) lossless

Треклист:
Anthony Braxton / Piano Music (1968-2000)
Жанр: Modern Composition
Страна-производитель диска: Великобритания
Год издания диска: 2008
Издатель (лейбл): Leo Records
Номер по каталогу: CD LR 901/909
Страна: США
Аудио кодек: FLAC (*.flac)
Тип рипа: tracks+.cue
Битрейт аудио: lossless
Продолжительность: 7:49:00
Источник (релизер): вот.сиди (Tael)
Наличие сканов в содержимом раздачи: нет
Треклист:
Disc 1
1 Composition No. 1 9:18
2 Composition No. 5 8:05
3 Composition No. 10 17:15
4 Composition No. 139 15:03
Disc 2
1 Composition No. 30 48:41
Disc 3
1 Composition No. 31 36:04
Disc 4
1 Composition No. 32 [Version 1] 37:13
2 Composition No. 301 37:56
Disc 5
1 Composition No. 32 [Version 2] 38:34
Disc 6
1 Composition No. 33 42:02
Disc 7
1 Composition No. 171 (Pt. 1A) 71:21
Disc 8
1 Composition No. 171 (Pt. 1B) 19:14
2 Press Conference 2:20
3 Composition N. 171 (Pt. 2) 25:32
Disc 9
1 The Trip 60:14
 
Лог создания рипа
X Lossless Decoder version 20101010 (123.3)
XLD extraction logfile from 2010-10-19 15:21:33 -0400
Anthony Braxton / Piano Music (disc 1)
Used drive : MATSHITA DVD-R UJ-898 (revision HC10)
Use cdparanoia mode : YES (CDParanoia III 10.2 engine)
Disable audio cache : OK for the drive with cache less than 2750KB
Make use of C2 pointers : NO
Read offset correction : 102
Max retry count : 100
Gap status : Analyzed, Appended (except HTOA)
TOC of the extracted CD
Track | Start | Length | Start sector | End sector
---------------------------------------------------------
1 | 00:00:00 | 09:18:28 | 0 | 41877
2 | 09:18:28 | 08:05:72 | 41878 | 78324
3 | 17:24:25 | 17:15:40 | 78325 | 155989
4 | 34:39:65 | 15:03:24 | 155990 | 223738
All Tracks
Album gain : 2.30 dB
Peak : 0.999939
Track 01
Filename : /Users/samwappler/Desktop/XLD/01 Anthony Braxton - Composition N.1.flac
Pre-gap length : 00:02:00
Track gain : 1.27 dB
Peak : 0.999908
CRC32 hash (test run) : A940C264
CRC32 hash : A940C264
CRC32 hash (skip zero) : 603605F6
AccurateRip signature : C73ACCD3
->Track not present in AccurateRip database.
Statistics
Read error : 0
Skipped (treated as error) : 0
Edge jitter error (maybe fixed) : 1
Atom jitter error (maybe fixed) : 0
Drift error (maybe fixed) : 0
Dropped bytes error (maybe fixed) : 0
Duplicated bytes error (maybe fixed) : 1
Inconsistency in error sectors : 0
Track 02
Filename : /Users/samwappler/Desktop/XLD/02 Anthony Braxton - Composition N.5.flac
Pre-gap length : 00:03:00
Track gain : 3.32 dB
Peak : 0.999939
CRC32 hash (test run) : B74F0359
CRC32 hash : B74F0359
CRC32 hash (skip zero) : 0A472AB8
AccurateRip signature : 802E8974
->Track not present in AccurateRip database.
Statistics
Read error : 0
Skipped (treated as error) : 0
Edge jitter error (maybe fixed) : 2
Atom jitter error (maybe fixed) : 1
Drift error (maybe fixed) : 1
Dropped bytes error (maybe fixed) : 1
Duplicated bytes error (maybe fixed) : 0
Inconsistency in error sectors : 0
Track 03
Filename : /Users/samwappler/Desktop/XLD/03 Anthony Braxton - Composition N.10.flac
Pre-gap length : 00:03:00
Track gain : 5.66 dB
Peak : 0.999908
CRC32 hash (test run) : C328EB15
CRC32 hash : BB26EDBD
->Rip may not be accurate.
CRC32 hash (skip zero) : 9196EDC3
AccurateRip signature : 340C0498
->Track not present in AccurateRip database.
Statistics
Read error : 0
Skipped (treated as error) : 0
Edge jitter error (maybe fixed) : 13
Atom jitter error (maybe fixed) : 7
Drift error (maybe fixed) : 1
Dropped bytes error (maybe fixed) : 5
Duplicated bytes error (maybe fixed) : 6
Inconsistency in error sectors : 1
List of suspicious positions :
(1) 04:57:62
Track 04
Filename : /Users/samwappler/Desktop/XLD/04 Anthony Braxton - Composition N.139.flac
Pre-gap length : 00:03:00
Track gain : 1.09 dB
Peak : 0.999939
CRC32 hash (test run) : 3A0BAE4F
CRC32 hash : 3A0BAE4F
CRC32 hash (skip zero) : 05BF3E2E
AccurateRip signature : FCAE2D2B
->Track not present in AccurateRip database.
Statistics
Read error : 0
Skipped (treated as error) : 0
Edge jitter error (maybe fixed) : 0
Atom jitter error (maybe fixed) : 0
Drift error (maybe fixed) : 0
Dropped bytes error (maybe fixed) : 0
Duplicated bytes error (maybe fixed) : 0
Inconsistency in error sectors : 0
Some inconsistencies found
End of status report
X Lossless Decoder version 20101010 (123.3)
XLD extraction logfile from 2010-10-19 16:26:42 -0400
/ Audio CD
Used drive : MATSHITA DVD-R UJ-898 (revision HC10)
Use cdparanoia mode : YES (CDParanoia III 10.2 engine)
Disable audio cache : OK for the drive with cache less than 2750KB
Make use of C2 pointers : NO
Read offset correction : 102
Max retry count : 100
Gap status : Analyzed, Appended (except HTOA)
TOC of the extracted CD
Track | Start | Length | Start sector | End sector
---------------------------------------------------------
1 | 00:00:00 | 48:41:72 | 0 | 219146
All Tracks
Album gain : 4.31 dB
Peak : 0.999939
Track 01
Filename : /Users/samwappler/Desktop/XLD/01 Track 01.flac
Pre-gap length : 00:02:00
Track gain : 4.31 dB
Peak : 0.999939
CRC32 hash (test run) : 0A9AD4CA
CRC32 hash : 0A9AD4CA
CRC32 hash (skip zero) : 6E99689A
AccurateRip signature : C4855B4E
->Track not present in AccurateRip database.
Statistics
Read error : 0
Skipped (treated as error) : 0
Edge jitter error (maybe fixed) : 1
Atom jitter error (maybe fixed) : 1
Drift error (maybe fixed) : 0
Dropped bytes error (maybe fixed) : 0
Duplicated bytes error (maybe fixed) : 0
Inconsistency in error sectors : 0
No errors occurred
End of status report
X Lossless Decoder version 20101010 (123.3)
XLD extraction logfile from 2010-10-19 17:05:09 -0400
Anthony Braxton / Piano Music (1968-2000) (disc 3)
Used drive : MATSHITA DVD-R UJ-898 (revision HC10)
Use cdparanoia mode : YES (CDParanoia III 10.2 engine)
Disable audio cache : OK for the drive with cache less than 2750KB
Make use of C2 pointers : NO
Read offset correction : 102
Max retry count : 100
Gap status : Analyzed, Appended (except HTOA)
TOC of the extracted CD
Track | Start | Length | Start sector | End sector
---------------------------------------------------------
1 | 00:00:00 | 36:04:08 | 0 | 162307
All Tracks
Album gain : 2.44 dB
Peak : 0.887939
Track 01
Filename : /Users/samwappler/Desktop/XLD/01 Anthony Braxton - Composition N.31.flac
Pre-gap length : 00:02:00
Track gain : 2.44 dB
Peak : 0.887939
CRC32 hash (test run) : CBA818BA
CRC32 hash : CBA818BA
CRC32 hash (skip zero) : 97C0F2DF
AccurateRip signature : 3BE63668
->Track not present in AccurateRip database.
Statistics
Read error : 0
Skipped (treated as error) : 0
Edge jitter error (maybe fixed) : 3
Atom jitter error (maybe fixed) : 5
Drift error (maybe fixed) : 0
Dropped bytes error (maybe fixed) : 0
Duplicated bytes error (maybe fixed) : 0
Inconsistency in error sectors : 0
No errors occurred
End of status report
X Lossless Decoder version 20101010 (123.3)
XLD extraction logfile from 2010-10-20 13:40:08 -0400
Anthony Braxton / Piano Music (1968-200) (disc 4)
Used drive : MATSHITA DVD-R UJ-898 (revision HC10)
Use cdparanoia mode : YES (CDParanoia III 10.2 engine)
Disable audio cache : OK for the drive with cache less than 2750KB
Make use of C2 pointers : NO
Read offset correction : 102
Max retry count : 100
Gap status : Analyzed, Appended (except HTOA)
TOC of the extracted CD
Track | Start | Length | Start sector | End sector
---------------------------------------------------------
1 | 00:00:00 | 37:13:33 | 0 | 167507
2 | 37:13:33 | 37:56:55 | 167508 | 338262
All Tracks
Album gain : -0.59 dB
Peak : 0.999908
Track 01
Filename : /Users/samwappler/Desktop/XLD/01 Anthony Braxton - Composition N.32.flac
Pre-gap length : 00:02:00
Track gain : -1.88 dB
Peak : 0.999908
CRC32 hash (test run) : C214FDF9
CRC32 hash : C214FDF9
CRC32 hash (skip zero) : 36DA72FA
AccurateRip signature : D66CDD4D
->Track not present in AccurateRip database.
Statistics
Read error : 0
Skipped (treated as error) : 0
Edge jitter error (maybe fixed) : 0
Atom jitter error (maybe fixed) : 0
Drift error (maybe fixed) : 0
Dropped bytes error (maybe fixed) : 0
Duplicated bytes error (maybe fixed) : 0
Inconsistency in error sectors : 0
Track 02
Filename : /Users/samwappler/Desktop/XLD/02 Anthony Braxton - Composition N.301.flac
Pre-gap length : 00:03:00
Track gain : 1.69 dB
Peak : 0.999908
CRC32 hash (test run) : 80D15CCA
CRC32 hash : 80D15CCA
CRC32 hash (skip zero) : 2A052A1A
AccurateRip signature : 74F8E2FE
->Track not present in AccurateRip database.
Statistics
Read error : 0
Skipped (treated as error) : 0
Edge jitter error (maybe fixed) : 1
Atom jitter error (maybe fixed) : 0
Drift error (maybe fixed) : 0
Dropped bytes error (maybe fixed) : 1
Duplicated bytes error (maybe fixed) : 1
Inconsistency in error sectors : 0
No errors occurred
End of status report
X Lossless Decoder version 20101010 (123.3)
XLD extraction logfile from 2010-10-20 14:26:10 -0400
Anthony Braxton / Piano Music (1968-2000) (disc 5)
Used drive : MATSHITA DVD-R UJ-898 (revision HC10)
Use cdparanoia mode : YES (CDParanoia III 10.2 engine)
Disable audio cache : OK for the drive with cache less than 2750KB
Make use of C2 pointers : NO
Read offset correction : 102
Max retry count : 100
Gap status : Analyzed, Appended (except HTOA)
TOC of the extracted CD
Track | Start | Length | Start sector | End sector
---------------------------------------------------------
1 | 00:00:00 | 38:34:38 | 0 | 173587
All Tracks
Album gain : -1.57 dB
Peak : 0.999939
Track 01
Filename : /Users/samwappler/Desktop/XLD/01 Anthony Braxton - Composition N.32 (version 2).flac
Pre-gap length : 00:02:00
Track gain : -1.57 dB
Peak : 0.999939
CRC32 hash (test run) : 7A5DA5B4
CRC32 hash : 7A5DA5B4
CRC32 hash (skip zero) : 2B11B016
AccurateRip signature : CE8B68DF
->Track not present in AccurateRip database.
Statistics
Read error : 0
Skipped (treated as error) : 0
Edge jitter error (maybe fixed) : 0
Atom jitter error (maybe fixed) : 0
Drift error (maybe fixed) : 0
Dropped bytes error (maybe fixed) : 0
Duplicated bytes error (maybe fixed) : 0
Inconsistency in error sectors : 0
No errors occurred
End of status report
X Lossless Decoder version 20101010 (123.3)
XLD extraction logfile from 2010-10-20 14:42:52 -0400
Anthony Braxton / Piano Music (1968-2000) (disc 6)
Used drive : MATSHITA DVD-R UJ-898 (revision HC10)
Use cdparanoia mode : YES (CDParanoia III 10.2 engine)
Disable audio cache : OK for the drive with cache less than 2750KB
Make use of C2 pointers : NO
Read offset correction : 102
Max retry count : 100
Gap status : Analyzed, Appended (except HTOA)
TOC of the extracted CD
Track | Start | Length | Start sector | End sector
---------------------------------------------------------
1 | 00:00:00 | 42:02:48 | 0 | 189197
All Tracks
Album gain : 5.62 dB
Peak : 0.648163
Track 01
Filename : /Users/samwappler/Desktop/XLD/01 Anthony Braxton - Composition N.33.flac
Pre-gap length : 00:02:00
Track gain : 5.62 dB
Peak : 0.648163
CRC32 hash (test run) : 3B332D8A
CRC32 hash : 3B332D8A
CRC32 hash (skip zero) : 18314545
AccurateRip signature : 8876834B
->Track not present in AccurateRip database.
Statistics
Read error : 0
Skipped (treated as error) : 0
Edge jitter error (maybe fixed) : 0
Atom jitter error (maybe fixed) : 0
Drift error (maybe fixed) : 0
Dropped bytes error (maybe fixed) : 0
Duplicated bytes error (maybe fixed) : 0
Inconsistency in error sectors : 0
No errors occurred
End of status report
X Lossless Decoder version 20101010 (123.3)
XLD extraction logfile from 2010-10-20 15:09:59 -0400
Anthony Braxton / Piano Music (1968-2000) (disc 7)
Used drive : MATSHITA DVD-R UJ-898 (revision HC10)
Use cdparanoia mode : YES (CDParanoia III 10.2 engine)
Disable audio cache : OK for the drive with cache less than 2750KB
Make use of C2 pointers : NO
Read offset correction : 102
Max retry count : 100
Gap status : Analyzed, Appended (except HTOA)
TOC of the extracted CD
Track | Start | Length | Start sector | End sector
---------------------------------------------------------
1 | 00:00:00 | 71:21:27 | 0 | 321101
All Tracks
Album gain : 1.45 dB
Peak : 0.944153
Track 01
Filename : /Users/samwappler/Desktop/XLD/01 Anthony Braxton - Composition N.171 (part 1A).flac
Pre-gap length : 00:02:00
Track gain : 1.45 dB
Peak : 0.944153
CRC32 hash (test run) : EFF87C91
CRC32 hash : EFF87C91
CRC32 hash (skip zero) : EDD2F3CA
AccurateRip signature : 43C4FEE6
->Track not present in AccurateRip database.
Statistics
Read error : 0
Skipped (treated as error) : 0
Edge jitter error (maybe fixed) : 0
Atom jitter error (maybe fixed) : 0
Drift error (maybe fixed) : 0
Dropped bytes error (maybe fixed) : 0
Duplicated bytes error (maybe fixed) : 0
Inconsistency in error sectors : 0
No errors occurred
End of status report
X Lossless Decoder version 20101010 (123.3)
XLD extraction logfile from 2010-10-20 15:54:42 -0400
Anthony Braxton / Piano Music (1968-200)
Used drive : MATSHITA DVD-R UJ-898 (revision HC10)
Use cdparanoia mode : YES (CDParanoia III 10.2 engine)
Disable audio cache : OK for the drive with cache less than 2750KB
Make use of C2 pointers : NO
Read offset correction : 102
Max retry count : 100
Gap status : Analyzed, Appended (except HTOA)
TOC of the extracted CD
Track | Start | Length | Start sector | End sector
---------------------------------------------------------
1 | 00:00:00 | 19:14:39 | 0 | 86588
2 | 19:14:39 | 02:20:64 | 86589 | 97152
3 | 21:35:28 | 25:32:18 | 97153 | 212070
All Tracks
Album gain : -0.19 dB
Peak : 0.946655
Track 01
Filename : /Users/samwappler/Desktop/XLD/01 Anthony Braxton - Composition N.171 (part 1B).flac
Pre-gap length : 00:02:00
Track gain : -1.10 dB
Peak : 0.946655
CRC32 hash (test run) : 0A06165B
CRC32 hash : 0A06165B
CRC32 hash (skip zero) : C2AB826A
AccurateRip signature : FD0E6CF1
->Track not present in AccurateRip database.
Statistics
Read error : 0
Skipped (treated as error) : 0
Edge jitter error (maybe fixed) : 0
Atom jitter error (maybe fixed) : 0
Drift error (maybe fixed) : 0
Dropped bytes error (maybe fixed) : 0
Duplicated bytes error (maybe fixed) : 0
Inconsistency in error sectors : 0
Track 02
Filename : /Users/samwappler/Desktop/XLD/02 Anthony Braxton - Press conference.flac
Pre-gap length : 00:04:00
Track gain : 1.53 dB
Peak : 0.730408
CRC32 hash (test run) : 44918EB3
CRC32 hash : 44918EB3
CRC32 hash (skip zero) : 27C1E434
AccurateRip signature : D95EB35E
->Track not present in AccurateRip database.
Statistics
Read error : 0
Skipped (treated as error) : 0
Edge jitter error (maybe fixed) : 0
Atom jitter error (maybe fixed) : 0
Drift error (maybe fixed) : 0
Dropped bytes error (maybe fixed) : 0
Duplicated bytes error (maybe fixed) : 0
Inconsistency in error sectors : 0
Track 03
Filename : /Users/samwappler/Desktop/XLD/03 Anthony Braxton - Composition N.171 (part 2).flac
Pre-gap length : 00:03:00
Track gain : 0.56 dB
Peak : 0.939178
CRC32 hash (test run) : 7EBD5C81
CRC32 hash : 7EBD5C81
CRC32 hash (skip zero) : 7A931B9B
AccurateRip signature : 986235D1
->Track not present in AccurateRip database.
Statistics
Read error : 0
Skipped (treated as error) : 0
Edge jitter error (maybe fixed) : 0
Atom jitter error (maybe fixed) : 0
Drift error (maybe fixed) : 0
Dropped bytes error (maybe fixed) : 0
Duplicated bytes error (maybe fixed) : 0
Inconsistency in error sectors : 0
No errors occurred
End of status report
X Lossless Decoder version 20101010 (123.3)
XLD extraction logfile from 2010-10-20 16:14:35 -0400
Anthony Braxton / Piano Music (1968-2000) (disc 9)
Used drive : MATSHITA DVD-R UJ-898 (revision HC10)
Use cdparanoia mode : YES (CDParanoia III 10.2 engine)
Disable audio cache : OK for the drive with cache less than 2750KB
Make use of C2 pointers : NO
Read offset correction : 102
Max retry count : 100
Gap status : Analyzed, Appended (except HTOA)
TOC of the extracted CD
Track | Start | Length | Start sector | End sector
---------------------------------------------------------
1 | 00:00:00 | 60:14:56 | 0 | 271105
All Tracks
Album gain : 1.11 dB
Peak : 1.000000
Track 01
Filename : /Users/samwappler/Desktop/XLD/01 Anthony Braxton - The Trip.flac
Pre-gap length : 00:02:00
Track gain : 1.11 dB
Peak : 1.000000
CRC32 hash (test run) : E5927851
CRC32 hash : E5927851
CRC32 hash (skip zero) : 9D3BFDCF
AccurateRip signature : F79464D8
->Track not present in AccurateRip database.
Statistics
Read error : 0
Skipped (treated as error) : 0
Edge jitter error (maybe fixed) : 0
Atom jitter error (maybe fixed) : 0
Drift error (maybe fixed) : 0
Dropped bytes error (maybe fixed) : 0
Duplicated bytes error (maybe fixed) : 0
Inconsistency in error sectors : 0
No errors occurred
End of status report
 
Содержание индексной карты (.CUE)
TITLE "Piano Music (disc 1)"
PERFORMER "Anthony Braxton"
REM GENRE "Free Improvisation"
REM DATE 2008
REM DISCID 230BA704
FILE "01 Anthony Braxton - Composition N.1.wav" WAVE
TRACK 01 AUDIO
TITLE "Composition N.1"
INDEX 01 00:00:00
TRACK 02 AUDIO
TITLE "Composition N.5"
INDEX 00 09:15:28
FILE "02 Anthony Braxton - Composition N.5.wav" WAVE
INDEX 01 00:00:00
TRACK 03 AUDIO
TITLE "Composition N.10"
INDEX 00 08:02:72
FILE "03 Anthony Braxton - Composition N.10.wav" WAVE
INDEX 01 00:00:00
TRACK 04 AUDIO
TITLE "Composition N.139"
INDEX 00 17:12:40
FILE "04 Anthony Braxton - Composition N.139.wav" WAVE
INDEX 01 00:00:00
REM DISCID 020B6901
FILE "01 Track 01.wav" WAVE
TRACK 01 AUDIO
INDEX 01 00:00:00
TITLE "Piano Music (1968-2000) (disc 3)"
PERFORMER "Anthony Braxton"
REM GENRE "Free Improvisation"
REM DATE 2008
REM DISCID 02087401
FILE "01 Anthony Braxton - Composition N.31.wav" WAVE
TRACK 01 AUDIO
TITLE "Composition N.31"
INDEX 01 00:00:00
TITLE "Piano Music (1968-200) (disc 4)"
PERFORMER "Anthony Braxton"
REM GENRE "Free Improvisation"
REM DATE 2008
REM DISCID 0E119E02
FILE "01 Anthony Braxton - Composition N.32.wav" WAVE
TRACK 01 AUDIO
TITLE "Composition N.32"
INDEX 01 00:00:00
TRACK 02 AUDIO
TITLE "Composition N.301"
INDEX 00 37:10:33
FILE "02 Anthony Braxton - Composition N.301.wav" WAVE
INDEX 01 00:00:00
TITLE "Piano Music (1968-2000) (disc 5)"
PERFORMER "Anthony Braxton"
REM GENRE "Free Improvisation"
REM DATE 2008
REM DISCID 02090A01
FILE "01 Anthony Braxton - Composition N.32 (version 2).wav" WAVE
TRACK 01 AUDIO
TITLE "Composition N.32 (version 2)"
INDEX 01 00:00:00
TITLE "Piano Music (1968-2000) (disc 6)"
PERFORMER "Anthony Braxton"
REM GENRE "Free Improvisation"
REM DATE 2008
REM DISCID 0209DA01
FILE "01 Anthony Braxton - Composition N.33.wav" WAVE
TRACK 01 AUDIO
TITLE "Composition N.33"
INDEX 01 00:00:00
TITLE "Piano Music (1968-2000) (disc 7)"
PERFORMER "Anthony Braxton"
REM GENRE "Free Improvisation"
REM DATE 2008
REM DISCID 0210B901
FILE "01 Anthony Braxton - Composition N.171 (part 1A).wav" WAVE
TRACK 01 AUDIO
TITLE "Composition N.171 (part 1A)"
INDEX 01 00:00:00
TITLE "Piano Music (1968-200)"
PERFORMER "Anthony Braxton"
REM GENRE "Free Improvisation"
REM DATE 2008
REM DISCID 220B0B03
FILE "01 Anthony Braxton - Composition N.171 (part 1B).wav" WAVE
TRACK 01 AUDIO
TITLE "Composition N.171 (part 1B)"
INDEX 01 00:00:00
TRACK 02 AUDIO
TITLE "Press conference"
INDEX 00 19:10:39
FILE "02 Anthony Braxton - Press conference.wav" WAVE
INDEX 01 00:00:00
TRACK 03 AUDIO
TITLE "Composition N.171 (part 2)"
INDEX 00 02:17:64
FILE "03 Anthony Braxton - Composition N.171 (part 2).wav" WAVE
INDEX 01 00:00:00
TITLE "Piano Music (1968-2000) (disc 9)"
PERFORMER "Anthony Braxton"
REM GENRE "Free Improvisation"
REM DATE 2008
REM DISCID 020E1E01
FILE "01 Anthony Braxton - The Trip.wav" WAVE
TRACK 01 AUDIO
TITLE "The Trip"
INDEX 01 00:00:00
 
Лог проверки качества
AUDIOCHECKER v2.0 beta (build 457) - by Dester - opdester@freemail.hu
~~~~~~~~~~~~~~~~~~~~~~~~~~~~~~~~~~
-=== DO NOT EDIT THIS FILE! ===-
Path: ...\Anthony Braxton Piano Music (1968 - 2000) disc 1
01 -=- 01 Anthony Braxton - Composition N.1.flac -=- MPEG (80%)
02 -=- 02 Anthony Braxton - Composition N.5.flac -=- MPEG (80%)
03 -=- 03 Anthony Braxton - Composition N.10.flac -=- CDDA (76%)
04 -=- 04 Anthony Braxton - Composition N.139.flac -=- MPEG (89%)
Summary 31,75% CDDA
47303812
AUDIOCHECKER v2.0 beta (build 457) - by Dester - opdester@freemail.hu
~~~~~~~~~~~~~~~~~~~~~~~~~~~~~~~~~~
-=== DO NOT EDIT THIS FILE! ===-
Path: ...\Anthony Braxton Piano Music (1968 - 2000) disc 2
01 -=- 01 Anthony Braxton - Composition N.30.flac -=- CDDA (43%)
24014612
AUDIOCHECKER v2.0 beta (build 457) - by Dester - opdester@freemail.hu
~~~~~~~~~~~~~~~~~~~~~~~~~~~~~~~~~~
-=== DO NOT EDIT THIS FILE! ===-
Path: ...\Anthony Braxton Piano Music (1968 - 2000) disc 3
01 -=- 01 Anthony Braxton - Composition N.31.flac -=- CDDA (43%)
24015892
AUDIOCHECKER v2.0 beta (build 457) - by Dester - opdester@freemail.hu
~~~~~~~~~~~~~~~~~~~~~~~~~~~~~~~~~~
-=== DO NOT EDIT THIS FILE! ===-
Path: ...\Anthony Braxton Piano Music (1968 - 2000) disc 4
01 -=- 01 Anthony Braxton - Composition N.32.flac -=- MPEG (93%)
02 -=- 02 Anthony Braxton - Composition N.301.flac -=- MPEG (93%)
Summary 7,00% CDDA
239178532
AUDIOCHECKER v2.0 beta (build 457) - by Dester - opdester@freemail.hu
~~~~~~~~~~~~~~~~~~~~~~~~~~~~~~~~~~
-=== DO NOT EDIT THIS FILE! ===-
Path: ...\Anthony Braxton Piano Music (1968 - 2000) disc 5
01 -=- 01 Anthony Braxton - Composition N.32 (version 2).flac -=- MPEG (93%)
61276612
AUDIOCHECKER v2.0 beta (build 457) - by Dester - opdester@freemail.hu
~~~~~~~~~~~~~~~~~~~~~~~~~~~~~~~~~~
-=== DO NOT EDIT THIS FILE! ===-
Path: ...\Anthony Braxton Piano Music (1968 - 2000) disc 6
01 -=- 01 Anthony Braxton - Composition N.33.flac -=- CDDA (99%)
24014196
AUDIOCHECKER v2.0 beta (build 457) - by Dester - opdester@freemail.hu
~~~~~~~~~~~~~~~~~~~~~~~~~~~~~~~~~~
-=== DO NOT EDIT THIS FILE! ===-
Path: ...\Anthony Braxton Piano Music (1968 - 2000) disc 7
01 -=- 01 Anthony Braxton - Composition N.171 (part 1A).flac -=- MPEG (89%)
226681492
AUDIOCHECKER v2.0 beta (build 457) - by Dester - opdester@freemail.hu
~~~~~~~~~~~~~~~~~~~~~~~~~~~~~~~~~~
-=== DO NOT EDIT THIS FILE! ===-
Path: ...\Anthony Braxton Piano Music (1968 - 2000) disc 8
01 -=- 01 Anthony Braxton - Composition N.171 (part 1B).flac -=- CDDA (92%)
02 -=- 02 Anthony Braxton - Press conference.flac -=- CDDA (100%)
03 -=- 03 Anthony Braxton - Composition N.171 (part 2).flac -=- CDDA (43%)
Summary 78,33% CDDA
18322788
AUDIOCHECKER v2.0 beta (build 457) - by Dester - opdester@freemail.hu
~~~~~~~~~~~~~~~~~~~~~~~~~~~~~~~~~~
-=== DO NOT EDIT THIS FILE! ===-
Path: ...\Anthony Braxton Piano Music (1968 - 2000) disc 9
01 -=- 01 Anthony Braxton - The Trip.flac -=- MPEG (100%)
6659908
 
Скриншот спектра частот
 
Состав
Geneviève Foccroulle piano
По всем вопросам пишите личное сообщение пользователю M0p94ok.
04:21
252
Нет комментариев. Ваш будет первым!