Вы используете незарегистрированную версию компонента "Вкладки"!

Поиск

(Free Jazz) Cecil Taylor (Arthur Murray, Jimmy Lyons) - Live At The Cafe Montmartre - 1994, FLAC (tracks) lossless

(Free Jazz) Cecil Taylor (Arthur Murray, Jimmy Lyons) - Live At The Cafe Montmartre - 1994, FLAC (tracks) lossless
Треклист:
Cecil Taylor / Live At The Cafe Montmartre
Жанр: Free Jazz
Страна-производитель диска: Япония
Год издания диска: 1994
Издатель (лейбл): Tokuma Japan Communications
Номер по каталогу: TKCB-70310
Страна: США
Аудио кодек: FLAC (*.flac)
Тип рипа: tracks
Битрейт аудио: lossless
Продолжительность: 1:57:24
Источник (релизер): soulseek (remi)
Наличие сканов в содержимом раздачи: да
Треклист:
1-1 Trance 8:55
1-2 Call 8:44
1-3 Lena 6:39
1-4 Nefertiti, The Beautiful One Has Come (1st Variation) 9:10
1-5 What's New 12:10
1-6 Nefertiti, The Beautiful One Has Come (2nd Variation) 8:00
2-1 Lena (Alternate Take) 14:22
2-2 D Trad That's What 21:26
2-3 Call (Alternate Take) 6:37
2-4 Untitled Sample 20:05
Recorded live on 23 November 1962 at the Cafe Montmartre, Copenhagen, Denmark
 
Лог создания рипа
Exact Audio Copy V0.99 prebeta 5 from 4. May 2009
EAC extraction logfile from 24. June 2010, 14:49
Cecil Taylor / Live at the Cafe Montmartre Disc 1
Used drive : HL-DT-STDVD-RAM GH40L Adapter: 1 ID: 1
Read mode : Secure
Utilize accurate stream : Yes
Defeat audio cache : No
Make use of C2 pointers : No
Read offset correction : 667
Overread into Lead-In and Lead-Out : No
Fill up missing offset samples with silence : Yes
Delete leading and trailing silent blocks : No
Null samples used in CRC calculations : No
Used interface : Native Win32 interface for Win NT & 2000
Gap handling : Not detected, thus appended to previous track
Used output format : Internal WAV Routines
Sample format : 44.100 Hz; 16 Bit; Stereo
TOC of the extracted CD
Track | Start | Length | Start sector | End sector
---------------------------------------------------------
1 | 0:00.00 | 9:12.65 | 0 | 41464
2 | 9:12.65 | 8:54.70 | 41465 | 81584
3 | 18:07.60 | 6:58.50 | 81585 | 112984
4 | 25:06.35 | 9:15.02 | 112985 | 154611
5 | 34:21.37 | 12:12.70 | 154612 | 209581
6 | 46:34.32 | 8:14.65 | 209582 | 246696
Track 1
Filename C:\Cecil Taylor - Live at the Cafe Montmartre\Live at the Cafe Montmartre Disc 1 - 01 - Trance.wav
Peak level 100.0 %
Track quality 99.9 %
Copy CRC 117F3157
Cannot be verified as accurate (confidence 1) [1FE8585D], AccurateRip returned [25BC3292]
Copy OK
Track 2
Filename C:\Cecil Taylor - Live at the Cafe Montmartre\Live at the Cafe Montmartre Disc 1 - 02 - Call.wav
Peak level 100.0 %
Track quality 99.9 %
Copy CRC E4F6B059
Cannot be verified as accurate (confidence 1) [72024C6B], AccurateRip returned [B2D0C9C4]
Copy OK
Track 3
Filename C:\Cecil Taylor - Live at the Cafe Montmartre\Live at the Cafe Montmartre Disc 1 - 03 - Lena.wav
Peak level 100.0 %
Track quality 100.0 %
Copy CRC 490986B8
Cannot be verified as accurate (confidence 1) [67522F48], AccurateRip returned [57C359F6]
Copy OK
Track 4
Filename C:\Cecil Taylor - Live at the Cafe Montmartre\Live at the Cafe Montmartre Disc 1 - 04 - Nefertete, The Beautiful One Has Come(1'st Variation).wav
Peak level 99.3 %
Track quality 100.0 %
Copy CRC 9614CFD8
Cannot be verified as accurate (confidence 1) [18FE7F47], AccurateRip returned [52E20A47]
Copy OK
Track 5
Filename C:\Cecil Taylor - Live at the Cafe Montmartre\Live at the Cafe Montmartre Disc 1 - 05 - What's New.wav
Peak level 99.3 %
Track quality 100.0 %
Copy CRC A985290D
Cannot be verified as accurate (confidence 1) [3DF99B68], AccurateRip returned [34D2B1C8]
Copy OK
Track 6
Filename C:\Cecil Taylor - Live at the Cafe Montmartre\Live at the Cafe Montmartre Disc 1 - 06 - Nefertete, The Beautiful One Has Come(2'nd Variation).wav
Peak level 99.3 %
Track quality 100.0 %
Copy CRC D523C1AD
Cannot be verified as accurate (confidence 1) [59713DBB], AccurateRip returned [AFA30A7B]
Copy OK
No tracks could be verified as accurate
You may have a different pressing from the one(s) in the database
No errors occurred
End of status report
Exact Audio Copy V0.99 prebeta 5 from 4. May 2009
EAC extraction logfile from 24. June 2010, 15:09
Cecil Taylor / Live at the Cafe Montmartre Disc 2
Used drive : HL-DT-STDVD-RAM GH40L Adapter: 1 ID: 1
Read mode : Secure
Utilize accurate stream : Yes
Defeat audio cache : No
Make use of C2 pointers : No
Read offset correction : 667
Overread into Lead-In and Lead-Out : No
Fill up missing offset samples with silence : Yes
Delete leading and trailing silent blocks : No
Null samples used in CRC calculations : No
Used interface : Native Win32 interface for Win NT & 2000
Gap handling : Not detected, thus appended to previous track
Used output format : Internal WAV Routines
Sample format : 44.100 Hz; 16 Bit; Stereo
TOC of the extracted CD
Track | Start | Length | Start sector | End sector
---------------------------------------------------------
1 | 0:00.00 | 14:23.62 | 0 | 64786
2 | 14:23.62 | 21:29.50 | 64787 | 161511
3 | 35:53.37 | 6:36.00 | 161512 | 191211
4 | 42:29.37 | 20:05.13 | 191212 | 281599
Track 1
Filename C:\Cecil Taylor - Live at the Cafe Montmartre\Live at the Cafe Montmartre Disc 2 - 01 - Lena alt take.wav
Peak level 99.3 %
Track quality 100.0 %
Copy CRC 1603AC42
Cannot be verified as accurate (confidence 1) [E0B4286B], AccurateRip returned [372B803F]
Copy OK
Track 2
Filename C:\Cecil Taylor - Live at the Cafe Montmartre\Live at the Cafe Montmartre Disc 2 - 02 - D.Trad, That's What.wav
Peak level 99.3 %
Track quality 100.0 %
Copy CRC 06644DA4
Cannot be verified as accurate (confidence 1) [DB5273AD], AccurateRip returned [C6D85AB7]
Copy OK
Track 3
Filename C:\Cecil Taylor - Live at the Cafe Montmartre\Live at the Cafe Montmartre Disc 2 - 03 - Call alt take.wav
Peak level 99.4 %
Track quality 100.0 %
Copy CRC 94884510
Cannot be verified as accurate (confidence 1) [6F728C0E], AccurateRip returned [D6F3696A]
Copy OK
Track 4
Filename C:\Cecil Taylor - Live at the Cafe Montmartre\Live at the Cafe Montmartre Disc 2 - 04 - Untitled Sample.wav
Peak level 96.6 %
Track quality 100.0 %
Copy CRC B3C543C8
Cannot be verified as accurate (confidence 1) [92A11FA3], AccurateRip returned [A5C9C426]
Copy OK
No tracks could be verified as accurate
You may have a different pressing from the one(s) in the database
No errors occurred
End of status report
 
Лог проверки качества
AUDIOCHECKER v2.0 beta (build 457) - by Dester - opdester@freemail.hu
~~~~~~~~~~~~~~~~~~~~~~~~~~~~~~~~~~
-=== DO NOT EDIT THIS FILE! ===-
Path: ...\disc 1
01 -=- Live at the Cafe Montmartre Disc 1 - 01 - Trance.flac -=- CDDA (100%)
02 -=- Live at the Cafe Montmartre Disc 1 - 02 - Call.flac -=- CDDA (100%)
03 -=- Live at the Cafe Montmartre Disc 1 - 03 - Lena.flac -=- CDDA (100%)
04 -=- Live at the Cafe Montmartre Disc 1 - 04 - Nefertete, The Beautiful One Has Come(1'st Variation).flac -=- CDDA (100%)
05 -=- Live at the Cafe Montmartre Disc 1 - 05 - What's New.flac -=- CDDA (100%)
06 -=- Live at the Cafe Montmartre Disc 1 - 06 - Nefertete, The Beautiful One Has Come(2'nd Variation).flac -=- CDDA (100%)
Summary 100,00% CDDA
89240292
AUDIOCHECKER v2.0 beta (build 457) - by Dester - opdester@freemail.hu
~~~~~~~~~~~~~~~~~~~~~~~~~~~~~~~~~~
-=== DO NOT EDIT THIS FILE! ===-
Path: ...\disc 2
01 -=- Live at the Cafe Montmartre Disc 2 - 01 - Lena alt take.flac -=- CDDA (100%)
02 -=- Live at the Cafe Montmartre Disc 2 - 02 - D.Trad, That's What.flac -=- CDDA (100%)
03 -=- Live at the Cafe Montmartre Disc 2 - 03 - Call alt take.flac -=- CDDA (99%)
04 -=- Live at the Cafe Montmartre Disc 2 - 04 - Untitled Sample.flac -=- CDDA (100%)
Summary 99,75% CDDA
208804148
Доп. информация: рояль расстроен
 
Состав
Cecil Taylor piano
Arthur Murray drums
Jimmy Lyons alto saxophone
Any questions -> support@pro-jazz.com. По всем вопросам пишите -> support@pro-jazz.com
04:20
179
Нет комментариев. Ваш будет первым!