Вы используете незарегистрированную версию компонента "Вкладки"!

Поиск

(Free Improvisation) Larry Stabbins - Monadic - 2003, FLAC (image+.cue) lossless

Треклист:
Larry Stabbins - Monadic

Жанр: Free Improvisation
Страна-производитель диска: UK
Год издания диска: 2003
Издатель (лейбл): Emanem 4093
Аудио кодек: FLAC (*.flac)
Тип рипа: image+.cue
Битрейт аудио: lossless
Продолжительность: 1:15:07
Источник (релизер): собственный рип
Наличие сканов в содержимом раздачи: нет
Larry Stabbins: soprano and tenor saxophones
1. Breathing
2. Singing
3. Thinking
4. Buzzing
5. Loving
6. Shaking
7. Sliding
8. Shirruping
9. Tuning
10. Speaking
11. Blowing
12. Dancing
13. Playing
 
Лог создания рипа
Exact Audio Copy V0.99 prebeta 5 from 4. May 2009
EAC extraction logfile from 6. March 2010, 18:31
Larry Stabbins / Monadic
Used drive : hp DVD-RAM GH40L Adapter: 0 ID: 1
Read mode : Secure
Utilize accurate stream : Yes
Defeat audio cache : Yes
Make use of C2 pointers : No
Read offset correction : 667
Overread into Lead-In and Lead-Out : No
Fill up missing offset samples with silence : Yes
Delete leading and trailing silent blocks : No
Null samples used in CRC calculations : Yes
Used interface : Installed external ASPI interface
Used output format : User Defined Encoder
Selected bitrate : 1024 kBit/s
Quality : High
Add ID3 tag : No
Command line compressor : C:\Program Files\Exact Audio Copy\Flac\flac.exe
Additional command line options : -6 -V -T "ARTIST=%a" -T "TITLE=%t" -T "ALBUM=%g" -T "DATE=%y" -T "TRACKNUMBER=%n" -T "GENRE=%m" -T "COMMENT=EAC FLAC -6" %s
TOC of the extracted CD
Track | Start | Length | Start sector | End sector
---------------------------------------------------------
1 | 0:00.00 | 4:58.00 | 0 | 22349
2 | 4:58.00 | 3:10.00 | 22350 | 36599
3 | 8:08.00 | 8:59.57 | 36600 | 77081
4 | 17:07.57 | 3:55.16 | 77082 | 94722
5 | 21:02.73 | 5:27.00 | 94723 | 119247
6 | 26:29.73 | 8:42.01 | 119248 | 158398
7 | 35:11.74 | 4:04.01 | 158399 | 176699
8 | 39:16.00 | 3:13.34 | 176700 | 191208
9 | 42:29.34 | 4:25.57 | 191209 | 211140
10 | 46:55.16 | 7:02.33 | 211141 | 242823
11 | 53:57.49 | 6:38.19 | 242824 | 272692
12 | 60:35.68 | 5:12.45 | 272693 | 296137
13 | 65:48.38 | 9:18.01 | 296138 | 337988
Range status and errors
Selected range
Filename C:\Users\Igor\Music\eac\Larry Stabbins - Monadic.wav
Peak level 97.0 %
Range quality 100.0 %
Test CRC 41858C91
Copy CRC 41858C91
Copy OK
No errors occurred
AccurateRip summary
Track 1 not present in database
Track 2 not present in database
Track 3 not present in database
Track 4 not present in database
Track 5 not present in database
Track 6 not present in database
Track 7 not present in database
Track 8 not present in database
Track 9 not present in database
Track 10 not present in database
Track 11 not present in database
Track 12 not present in database
Track 13 not present in database
None of the tracks are present in the AccurateRip database
End of status report
Any questions -> support@pro-jazz.com. По всем вопросам пишите -> support@pro-jazz.com
04:19
172
Нет комментариев. Ваш будет первым!