Вы используете незарегистрированную версию компонента "Вкладки"!

Поиск

(Avant-Garde / Free Improvisation) Jason Stein - In Exchange for a Process - 2009, FLAC (image+.cue) lossless

Треклист:
Jason Stein - In Exchange for a Process

Жанр: Avant-Garde / Free Improvisation
Страна-производитель диска: UK
Год издания диска: 2009
Издатель (лейбл): Leo Records 545
Аудио кодек: FLAC (*.flac)
Тип рипа: image+.cue
Битрейт аудио: lossless
Продолжительность: 42:17
Источник (релизер): собственный рип
Наличие сканов в содержимом раздачи: нет
Jason Stein: bass clarinet
1. For the Sake of Edgar Pollard
2. For Ishan
3. History Histrionics
4. Paynt By Numbers
5. E.P. and Me
6. Hysterical Eric
7. Murray Flurry
8. Temporary Framing of Dr. J
9. Handmade Chicago
10. For Peter
11. Fiction of C.G.
 
Лог создания рипа
Exact Audio Copy V0.99 prebeta 5 from 4. May 2009
EAC extraction logfile from 24. December 2009, 22:39
Jason Stein / In Exchange for a Process
Used drive : TSSTcorpCD/DVDW SH-S182M Adapter: 1 ID: 0
Read mode : Secure
Utilize accurate stream : Yes
Defeat audio cache : Yes
Make use of C2 pointers : No
Read offset correction : 6
Overread into Lead-In and Lead-Out : No
Fill up missing offset samples with silence : Yes
Delete leading and trailing silent blocks : No
Null samples used in CRC calculations : Yes
Used interface : Installed external ASPI interface
Used output format : User Defined Encoder
Selected bitrate : 1024 kBit/s
Quality : High
Add ID3 tag : No
Command line compressor : C:\Program Files\Exact Audio Copy\Flac\flac.exe
Additional command line options : -6 -V -T "ARTIST=%a" -T "TITLE=%t" -T "ALBUM=%g" -T "DATE=%y" -T "TRACKNUMBER=%n" -T "GENRE=%m" -T "COMMENT=EAC FLAC -6" %s
TOC of the extracted CD
Track | Start | Length | Start sector | End sector
---------------------------------------------------------
1 | 0:00.00 | 2:35.70 | 0 | 11694
2 | 2:35.70 | 3:07.50 | 11695 | 25769
3 | 5:43.45 | 3:36.69 | 25770 | 42038
4 | 9:20.39 | 5:40.17 | 42039 | 67555
5 | 15:00.56 | 4:40.16 | 67556 | 88571
6 | 19:40.72 | 5:40.30 | 88572 | 114101
7 | 25:21.27 | 1:59.41 | 114102 | 123067
8 | 27:20.68 | 5:30.45 | 123068 | 147862
9 | 32:51.38 | 3:45.70 | 147863 | 164807
10 | 36:37.33 | 2:03.46 | 164808 | 174078
11 | 38:41.04 | 3:36.22 | 174079 | 190300
Range status and errors
Selected range
Filename C:\Users\Igor\Music\eac\Jason Stein - In Exchange for a Process.wav
Peak level 100.0 %
Range quality 100.0 %
Test CRC CB8C1D7F
Copy CRC CB8C1D7F
Copy OK
No errors occurred
AccurateRip summary
Track 1 not present in database
Track 2 not present in database
Track 3 not present in database
Track 4 not present in database
Track 5 not present in database
Track 6 not present in database
Track 7 not present in database
Track 8 not present in database
Track 9 not present in database
Track 10 not present in database
Track 11 not present in database
None of the tracks are present in the AccurateRip database
End of status report
По всем вопросам пишите личное сообщение пользователю M0p94ok.
04:18
173
Нет комментариев. Ваш будет первым!