Вы используете незарегистрированную версию компонента "Вкладки"!

Поиск

(free jazz, intakt) [cd], Die Enttauschung 4 (Rudi Mahall, Axel Dorner, Jan Roder, Uli Jennessen) 2006 FLAC (tracks+.cue), lossless

(free jazz, intakt) [cd], Die Enttauschung 4 (Rudi Mahall, Axel Dorner, Jan Roder, Uli Jennessen) 2006 FLAC (tracks+.cue), lossless
Издатель (лейбл):
Треклист:


Die Enttäuschung 4

Жанр: free jazz
Год выпуска: 2006
Издатель (лейбл): Intakt / 125
Формат: FLAC (tracks+.cue)
Битрейт аудио: lossless
Продолжительность 1`07`02
Источник: what.cd, brunches
Bass – Jan Roder
Bass Clarinet – Rudi Mahall
Drums – Uli Jennessen
Trumpet – Axel Dörner

tracks
1 Drei-null 3:12
2 Arnie & Randy 4:22
3 Vorwärts - Rückwärts 3:55
4 Drive It Down On The Piano 4:02
5 Resterampe 3:06
6 Klammer 3 2:17
7 Vorwärts - Rückwärts 5:00
8 Oben Mit 3:39
9 Viaduct 3:51
10 Very Goode 6:23
11 Wer Kommt Mehr Vom ALG 4:01
12 Silke 3:49
13 Selbstkritik Nr.4 2:34
14 Silverstone Sparkle Goldfinger 4:28
15 Foreground Behind 3:52
16 4/45 3:49
17 Mademoiselle Vauteck 3:48


 
.log
Exact Audio Copy V1.0 beta 3 from 29. August 2011
EAC extraction logfile from 11. March 2014, 16:14
Rudi Mahall / Die Enttäuschung
Used drive : HL-DT-STDVD+-RW GHA2N Adapter: 0 ID: 0
Read mode : Secure
Utilize accurate stream : Yes
Defeat audio cache : Yes
Make use of C2 pointers : No
Read offset correction : 667
Overread into Lead-In and Lead-Out : No
Fill up missing offset samples with silence : Yes
Delete leading and trailing silent blocks : No
Null samples used in CRC calculations : Yes
Used interface : Native Win32 interface for Win NT & 2000
Gap handling : Appended to previous track
Used output format : User Defined Encoder
Selected bitrate : 896 kBit/s
Quality : High
Add ID3 tag : No
Command line compressor : C:\Program Files (x86)\Exact Audio Copy\Flac\flac.exe
Additional command line options : -8 -V -T "ARTIST=%artist%" -T "TITLE=%title%" -T "ALBUM=%albumtitle%" -T "DATE=%year%" -T "TRACKNUMBER=%tracknr%" -T "GENRE=%genre%" -T "PERFORMER=%albuminterpret%" -T "COMPOSER=%composer%" %haslyrics%--tag-from-file=LYRICS="%lyricsfile%"%haslyrics% -T "ALBUMARTIST=%albumartist%" -T "DISCNUMBER=%cdnumber%" -T "TOTALDISCS=%totalcds%" -T "TOTALTRACKS=%numtracks%" -T "COMMENT=%comment%" %source% -o %dest%
TOC of the extracted CD
Track | Start | Length | Start sector | End sector
---------------------------------------------------------
1 | 0:00.00 | 3:14.32 | 0 | 14581
2 | 3:14.32 | 4:23.67 | 14582 | 34373
3 | 7:38.24 | 3:57.01 | 34374 | 52149
4 | 11:35.25 | 4:04.41 | 52150 | 70490
5 | 15:39.66 | 3:07.65 | 70491 | 84580
6 | 18:47.56 | 2:19.00 | 84581 | 95005
7 | 21:06.56 | 5:01.50 | 95006 | 117630
8 | 26:08.31 | 3:40.46 | 117631 | 134176
9 | 29:49.02 | 3:53.39 | 134177 | 151690
10 | 33:42.41 | 6:25.10 | 151691 | 180575
11 | 40:07.51 | 4:03.24 | 180576 | 198824
12 | 44:11.00 | 3:51.42 | 198825 | 216191
13 | 48:02.42 | 2:35.58 | 216192 | 227874
14 | 50:38.25 | 4:30.10 | 227875 | 248134
15 | 55:08.35 | 3:53.56 | 248135 | 265665
16 | 59:02.16 | 4:11.37 | 265666 | 284527
17 | 63:13.53 | 3:48.26 | 284528 | 301653
Track 1
Filename C:\What CD\European Episode\01 drei-null.wav
Pre-gap length 0:00:02.00
Peak level 96.6 %
Extraction speed 1.7 X
Track quality 100.0 %
Test CRC 117C38FC
Copy CRC 117C38FC
Accurately ripped (confidence 3) [349F766D] (AR v1)
Copy OK
Track 2
Filename C:\What CD\European Episode\02 Arnie & Randy.wav
Pre-gap length 0:00:03.09
Peak level 96.6 %
Extraction speed 2.0 X
Track quality 100.0 %
Test CRC BE3B7A90
Copy CRC BE3B7A90
Accurately ripped (confidence 3) [8217E6CC] (AR v1)
Copy OK
Track 3
Filename C:\What CD\European Episode\03 vorwärts - rückwärts.wav
Pre-gap length 0:00:04.94
Peak level 96.6 %
Extraction speed 1.9 X
Track quality 99.9 %
Test CRC 9F742B7D
Copy CRC 9F742B7D
Accurately ripped (confidence 3) [5FAF2F76] (AR v1)
Copy OK
Track 4
Filename C:\What CD\European Episode\04 Drive It Down On The Piano.wav
Pre-gap length 0:00:03.53
Peak level 96.6 %
Extraction speed 2.4 X
Track quality 100.0 %
Test CRC 6B68B04E
Copy CRC 6B68B04E
Accurately ripped (confidence 3) [14ABEF2E] (AR v1)
Copy OK
Track 5
Filename C:\What CD\European Episode\05 Resterampe.wav
Pre-gap length 0:00:03.12
Peak level 96.6 %
Extraction speed 2.0 X
Track quality 99.9 %
Test CRC E59CA239
Copy CRC E59CA239
Accurately ripped (confidence 3) [83FF7E3D] (AR v1)
Copy OK
Track 6
Filename C:\What CD\European Episode\06 Klammer 3.wav
Pre-gap length 0:00:03.08
Peak level 96.6 %
Extraction speed 2.3 X
Track quality 100.0 %
Test CRC 18989738
Copy CRC 18989738
Accurately ripped (confidence 3) [56475F03] (AR v1)
Copy OK
Track 7
Filename C:\What CD\European Episode\07 vorwärts - rückwärts.wav
Pre-gap length 0:00:04.81
Peak level 96.6 %
Extraction speed 2.8 X
Track quality 100.0 %
Test CRC 355768D5
Copy CRC 355768D5
Accurately ripped (confidence 3) [8DAB217A] (AR v1)
Copy OK
Track 8
Filename C:\What CD\European Episode\08 Oben mit.wav
Pre-gap length 0:00:02.89
Peak level 96.6 %
Extraction speed 2.8 X
Track quality 100.0 %
Test CRC 0FC1FD48
Copy CRC 0FC1FD48
Accurately ripped (confidence 3) [86DAB221] (AR v1)
Copy OK
Track 9
Filename C:\What CD\European Episode\09 viaduct.wav
Pre-gap length 0:00:05.06
Peak level 96.6 %
Extraction speed 3.0 X
Track quality 100.0 %
Test CRC A9FB5540
Copy CRC A9FB5540
Accurately ripped (confidence 3) [E1C4450E] (AR v1)
Copy OK
Track 10
Filename C:\What CD\European Episode\10 Very Goode.wav
Pre-gap length 0:00:03.04
Peak level 96.6 %
Extraction speed 3.1 X
Track quality 99.9 %
Test CRC 8B7F7544
Copy CRC 8B7F7544
Accurately ripped (confidence 3) [694BF75D] (AR v1)
Copy OK
Track 11
Filename C:\What CD\European Episode\11 Wer kommt mehr vom ALG.wav
Pre-gap length 0:00:04.56
Peak level 96.6 %
Extraction speed 2.9 X
Track quality 99.9 %
Test CRC DC4B02A5
Copy CRC DC4B02A5
Accurately ripped (confidence 3) [4759C0C4] (AR v1)
Copy OK
Track 12
Filename C:\What CD\European Episode\12 Silke.wav
Pre-gap length 0:00:03.32
Peak level 96.6 %
Extraction speed 3.5 X
Track quality 100.0 %
Test CRC 1434315A
Copy CRC 1434315A
Accurately ripped (confidence 3) [446CF0A4] (AR v1)
Copy OK
Track 13
Filename C:\What CD\European Episode\13 Selbstkritik Nr. 4.wav
Pre-gap length 0:00:03.37
Peak level 96.6 %
Extraction speed 3.3 X
Track quality 100.0 %
Test CRC 8029FEAE
Copy CRC 8029FEAE
Accurately ripped (confidence 3) [BC383806] (AR v1)
Copy OK
Track 14
Filename C:\What CD\European Episode\14 Silverstone Sparkle Goldfinger.wav
Pre-gap length 0:00:04.16
Peak level 96.6 %
Extraction speed 3.6 X
Track quality 100.0 %
Test CRC FB31705F
Copy CRC FB31705F
Accurately ripped (confidence 3) [FD7F378E] (AR v1)
Copy OK
Track 15
Filename C:\What CD\European Episode\15 Foreground behind.wav
Pre-gap length 0:00:03.21
Peak level 96.6 %
Extraction speed 3.7 X
Track quality 100.0 %
Test CRC 364894B4
Copy CRC 364894B4
Accurately ripped (confidence 3) [09502EF7] (AR v1)
Copy OK
Track 16
Filename C:\What CD\European Episode\16 4,45.wav
Pre-gap length 0:00:03.56
Peak level 96.6 %
Extraction speed 3.9 X
Track quality 100.0 %
Test CRC 1029787A
Copy CRC 1029787A
Accurately ripped (confidence 3) [1112E0E9] (AR v1)
Copy OK
Track 17
Filename C:\What CD\European Episode\17 Mademoiselle Vauteck.wav
Pre-gap length 0:00:03.72
Peak level 96.6 %
Extraction speed 4.0 X
Track quality 100.0 %
Test CRC FCAF2796
Copy CRC FCAF2796
Accurately ripped (confidence 3) [C372577E] (AR v1)
Copy OK
All tracks accurately ripped
No errors occurred
End of status report
==== Log checksum 696FD9871A4AD889B4106E76B1BDE5F8C3DEF174C9E28952B414124D5888217B ====
 
.cue
REM GENRE Jazz
REM DATE 2006
REM DISCID F00FB611
REM COMMENT "ExactAudioCopy v1.0b3"
PERFORMER "Rudi Mahall"
TITLE "Die Enttäuschung"
FILE "01 drei-null.wav" WAVE
TRACK 01 AUDIO
TITLE "drei-null"
PERFORMER "Rudi Mahall"
ISRC CH2700700530
INDEX 01 00:00:00
TRACK 02 AUDIO
TITLE "Arnie & Randy"
PERFORMER "Rudi Mahall"
ISRC CH2700700531
INDEX 00 03:11:25
FILE "02 Arnie & Randy.wav" WAVE
INDEX 01 00:00:00
TRACK 03 AUDIO
TITLE "vorwärts - rückwärts"
PERFORMER "Rudi Mahall"
ISRC CH2700700532
INDEX 00 04:18:71
FILE "03 vorwärts - rückwärts.wav" WAVE
INDEX 01 00:00:00
TRACK 04 AUDIO
TITLE "Drive It Down On The Piano"
PERFORMER "Rudi Mahall"
ISRC CH2700700533
INDEX 00 03:53:36
FILE "04 Drive It Down On The Piano.wav" WAVE
INDEX 01 00:00:00
TRACK 05 AUDIO
TITLE "Resterampe"
PERFORMER "Rudi Mahall"
ISRC CH2700700534
INDEX 00 04:01:32
FILE "05 Resterampe.wav" WAVE
INDEX 01 00:00:00
TRACK 06 AUDIO
TITLE "Klammer 3"
PERFORMER "Rudi Mahall"
ISRC CH2700700535
INDEX 00 03:04:59
FILE "06 Klammer 3.wav" WAVE
INDEX 01 00:00:00
TRACK 07 AUDIO
TITLE "vorwärts - rückwärts"
PERFORMER "Rudi Mahall"
ISRC CH2700700536
INDEX 00 02:14:14
FILE "07 vorwärts - rückwärts.wav" WAVE
INDEX 01 00:00:00
TRACK 08 AUDIO
TITLE "Oben mit"
PERFORMER "Rudi Mahall"
ISRC CH2700700537
INDEX 00 04:58:58
FILE "08 Oben mit.wav" WAVE
INDEX 01 00:00:00
TRACK 09 AUDIO
TITLE "viaduct"
PERFORMER "Rudi Mahall"
ISRC CH2700700538
INDEX 00 03:35:41
FILE "09 viaduct.wav" WAVE
INDEX 01 00:00:00
TRACK 10 AUDIO
TITLE "Very Goode"
PERFORMER "Rudi Mahall"
ISRC CH2700700539
INDEX 00 03:50:36
FILE "10 Very Goode.wav" WAVE
INDEX 01 00:00:00
TRACK 11 AUDIO
TITLE "Wer kommt mehr vom ALG"
PERFORMER "Rudi Mahall"
ISRC CH2700700540
INDEX 00 06:20:43
FILE "11 Wer kommt mehr vom ALG.wav" WAVE
INDEX 01 00:00:00
TRACK 12 AUDIO
TITLE "Silke"
PERFORMER "Rudi Mahall"
ISRC CH2700700541
INDEX 00 04:00:00
FILE "12 Silke.wav" WAVE
INDEX 01 00:00:00
TRACK 13 AUDIO
TITLE "Selbstkritik Nr. 4"
PERFORMER "Rudi Mahall"
ISRC CH2700700542
INDEX 00 03:48:14
FILE "13 Selbstkritik Nr. 4.wav" WAVE
INDEX 01 00:00:00
TRACK 14 AUDIO
TITLE "Silverstone Sparkle Goldfinger"
PERFORMER "Rudi Mahall"
ISRC CH2700700543
INDEX 00 02:31:46
FILE "14 Silverstone Sparkle Goldfinger.wav" WAVE
INDEX 01 00:00:00
TRACK 15 AUDIO
TITLE "Foreground behind"
PERFORMER "Rudi Mahall"
ISRC CH2700700544
INDEX 00 04:26:69
FILE "15 Foreground behind.wav" WAVE
INDEX 01 00:00:00
TRACK 16 AUDIO
TITLE "4/45"
PERFORMER "Rudi Mahall"
ISRC CH2700700545
INDEX 00 03:50:14
FILE "16 4,45.wav" WAVE
INDEX 01 00:00:00
TRACK 17 AUDIO
TITLE "Mademoiselle Vauteck"
PERFORMER "Rudi Mahall"
ISRC CH2700700546
INDEX 00 04:07:58
FILE "17 Mademoiselle Vauteck.wav" WAVE
INDEX 01 00:00:00
 
.accurip
[CUETools log; Date: 15/04/14 15:52:34; Version: 2.1.4]
[CTDB TOCID: mQgdg9rgycH5zspQ9DwMLsPcrjc-] found.
Track | CTDB Status
1 | (1/1) Accurately ripped
2 | (1/1) Accurately ripped
3 | (1/1) Accurately ripped
4 | (1/1) Accurately ripped
5 | (1/1) Accurately ripped
6 | (1/1) Accurately ripped
7 | (1/1) Accurately ripped
8 | (1/1) Accurately ripped
9 | (1/1) Accurately ripped
10 | (1/1) Accurately ripped
11 | (1/1) Accurately ripped
12 | (1/1) Accurately ripped
13 | (1/1) Accurately ripped
14 | (1/1) Accurately ripped
15 | (1/1) Accurately ripped
16 | (1/1) Accurately ripped
17 | (1/1) Accurately ripped
[AccurateRip ID: 0028dd76-0208fe58-f00fb611] found.
Track [ CRC | V2 ] Status
01 [349f766d|95110039] (3+0/3) Accurately ripped
02 [8217e6cc|ac57aff0] (3+0/3) Accurately ripped
03 [5faf2f76|b7b6eb08] (3+0/3) Accurately ripped
04 [14abef2e|fff8bead] (3+0/3) Accurately ripped
05 [83ff7e3d|dfcc56dd] (3+0/3) Accurately ripped
06 [56475f03|4c9b0339] (3+0/3) Accurately ripped
07 [8dab217a|8a9ba92a] (3+0/3) Accurately ripped
08 [86dab221|a3b38f38] (3+0/3) Accurately ripped
09 [e1c4450e|2f58913c] (3+0/3) Accurately ripped
10 [694bf75d|11fcc053] (3+0/3) Accurately ripped
11 [4759c0c4|77d48d52] (3+0/3) Accurately ripped
12 [446cf0a4|812a00a2] (3+0/3) Accurately ripped
13 [bc383806|5cd37f22] (3+0/3) Accurately ripped
14 [fd7f378e|6ac4904b] (3+0/3) Accurately ripped
15 [09502ef7|185b2fe6] (3+0/3) Accurately ripped
16 [1112e0e9|078299a2] (3+0/3) Accurately ripped
17 [c372577e|404ba5da] (3+0/3) Accurately ripped
Track Peak [ CRC32 ] [W/O NULL] [ LOG ]
-- 96.6 [F9C86864] [12B91467]
01 96.6 [117C38FC] [6B9ECD12] CRC32
02 96.6 [BE3B7A90] [475E71A0] CRC32
03 96.6 [9F742B7D] [098AD30E] CRC32
04 96.6 [6B68B04E] [29466FE5] CRC32
05 96.6 [E59CA239] [5855723D] CRC32
06 96.6 [18989738] [264A79E9] CRC32
07 96.6 [355768D5] [C70504D7] CRC32
08 96.6 [0FC1FD48] [9CCFCAD4] CRC32
09 96.6 [A9FB5540] [EC3F3988] CRC32
10 96.6 [8B7F7544] [4442BE97] CRC32
11 96.6 [DC4B02A5] [082ADD7F] CRC32
12 96.6 [1434315A] [1566BC39] CRC32
13 96.6 [8029FEAE] [6323FA16] CRC32
14 96.6 [FB31705F] [29E9BCAE] CRC32
15 96.6 [364894B4] [4CA941E8] CRC32
16 96.6 [1029787A] [3B6A9BE7] CRC32
17 96.6 [FCAF2796] [3AC5082A] CRC32

http://www.discogs.com/Die-Entt%C3%A4uschung-4/release/2309554
другие релизы
По всем вопросам пишите личное сообщение пользователю M0p94ok.
01:12
157
Нет комментариев. Ваш будет первым!