Вы используете незарегистрированную версию компонента "Вкладки"!

Поиск

(free jazz, intakt ) [cd], Die Enttauschung 5 (Rudi Mahall, Axel Dorner, Jan Roder, Uli Jennessen) 2009 FLAC (tracks+.cue), lossless

(free jazz, intakt ) [cd], Die Enttauschung 5 (Rudi Mahall, Axel Dorner, Jan Roder, Uli Jennessen) 2009 FLAC (tracks+.cue), lossless
Издатель (лейбл):
Треклист:
Die Enttauschung 5 (Rudi Mahall, Axel Dorner, Jan Roder, Uli Jennessen)


Die Enttäuschung 5

Жанр:free jazz
Год выпуска: 2009
Издатель (лейбл):Intakt / 166
Формат: FLAC (tracks+.cue)
Битрейт аудио: lossless
Продолжительность 59`09
Источник: what.cd, brunches
Bass – Jan Roder
Bass Clarinet – Rudi Mahall
Drums – Uli Jennessen
Trumpet – Axel Dörner

tracks

1 Rocket In The Pocket 4:29
2 Tja 2:39
3 Uotenniw 3:54
4 Wiener Schnitzel 2:48
5 Salty Dog 4:41
6 For Quarts Only 4:24
7 Tinnef 5:24
8 Tu Es Nicht 3:21
9 Nasses Handtuch 4:03
10 Tatsächlich 5:50
11 Rumba Brutal 4:48
12 Hopfen 3:51
13 Schienenersatzverkehr 3:57
14 Bruno 4:39


 
.log
Exact Audio Copy V1.0 beta 3 from 29. August 2011
EAC extraction logfile from 11. March 2014, 14:28
Die Enttäuschung / Die Enttäuschung
Used drive : HL-DT-STDVD+-RW GHA2N Adapter: 0 ID: 0
Read mode : Secure
Utilize accurate stream : Yes
Defeat audio cache : Yes
Make use of C2 pointers : No
Read offset correction : 667
Overread into Lead-In and Lead-Out : No
Fill up missing offset samples with silence : Yes
Delete leading and trailing silent blocks : No
Null samples used in CRC calculations : Yes
Used interface : Native Win32 interface for Win NT & 2000
Gap handling : Appended to previous track
Used output format : User Defined Encoder
Selected bitrate : 896 kBit/s
Quality : High
Add ID3 tag : No
Command line compressor : C:\Program Files (x86)\Exact Audio Copy\Flac\flac.exe
Additional command line options : -8 -V -T "ARTIST=%artist%" -T "TITLE=%title%" -T "ALBUM=%albumtitle%" -T "DATE=%year%" -T "TRACKNUMBER=%tracknr%" -T "GENRE=%genre%" -T "PERFORMER=%albuminterpret%" -T "COMPOSER=%composer%" %haslyrics%--tag-from-file=LYRICS="%lyricsfile%"%haslyrics% -T "ALBUMARTIST=%albumartist%" -T "DISCNUMBER=%cdnumber%" -T "TOTALDISCS=%totalcds%" -T "TOTALTRACKS=%numtracks%" -T "COMMENT=%comment%" %source% -o %dest%
TOC of the extracted CD
Track | Start | Length | Start sector | End sector
---------------------------------------------------------
1 | 0:00.00 | 4:30.69 | 0 | 20318
2 | 4:30.69 | 2:41.15 | 20319 | 32408
3 | 7:12.09 | 3:56.13 | 32409 | 50121
4 | 11:08.22 | 2:50.39 | 50122 | 62910
5 | 13:58.61 | 4:43.50 | 62911 | 84185
6 | 18:42.36 | 4:26.13 | 84186 | 104148
7 | 23:08.49 | 5:26.50 | 104149 | 128648
8 | 28:35.24 | 3:23.00 | 128649 | 143873
9 | 31:58.24 | 4:05.46 | 143874 | 162294
10 | 36:03.70 | 5:52.25 | 162295 | 188719
11 | 41:56.20 | 5:00.25 | 188720 | 211244
12 | 46:56.45 | 3:53.59 | 211245 | 228778
13 | 50:50.29 | 3:39.28 | 228779 | 245231
14 | 54:29.57 | 4:39.45 | 245232 | 266201
Track 1
Filename C:\What CD\European Episode\01 Rocket In The Pocket.wav
Pre-gap length 0:00:02.00
Peak level 100.0 %
Extraction speed 1.7 X
Track quality 99.9 %
Test CRC 0F358E2C
Copy CRC 0F358E2C
Accurately ripped (confidence 1) [F23DEB0C] (AR v1)
Copy OK
Track 2
Filename C:\What CD\European Episode\02 Tja.wav
Pre-gap length 0:00:02.00
Peak level 100.0 %
Extraction speed 1.9 X
Track quality 100.0 %
Test CRC 947EFE8C
Copy CRC 947EFE8C
Accurately ripped (confidence 1) [CD64DE60] (AR v1)
Copy OK
Track 3
Filename C:\What CD\European Episode\03 Uotenniw.wav
Pre-gap length 0:00:02.00
Peak level 100.0 %
Extraction speed 2.3 X
Track quality 100.0 %
Test CRC 7065CE30
Copy CRC 7065CE30
Accurately ripped (confidence 1) [A5C7DEE9] (AR v1)
Copy OK
Track 4
Filename C:\What CD\European Episode\04 Wiener Schnitzel.wav
Pre-gap length 0:00:02.00
Peak level 85.8 %
Extraction speed 2.2 X
Track quality 100.0 %
Test CRC 887EA89E
Copy CRC 887EA89E
Accurately ripped (confidence 1) [E28C64A9] (AR v1)
Copy OK
Track 5
Filename C:\What CD\European Episode\05 Salty Dog.wav
Pre-gap length 0:00:02.00
Peak level 100.0 %
Extraction speed 2.6 X
Track quality 100.0 %
Test CRC A18D320C
Copy CRC A18D320C
Accurately ripped (confidence 1) [C35675B8] (AR v1)
Copy OK
Track 6
Filename C:\What CD\European Episode\06 For Quarts Only.wav
Pre-gap length 0:00:02.00
Peak level 100.0 %
Extraction speed 2.7 X
Track quality 100.0 %
Test CRC 0252DF8B
Copy CRC 0252DF8B
Accurately ripped (confidence 1) [964163C6] (AR v1)
Copy OK
Track 7
Filename C:\What CD\European Episode\07 Tinnef.wav
Pre-gap length 0:00:02.00
Peak level 100.0 %
Extraction speed 2.8 X
Track quality 99.9 %
Test CRC 45ABDC29
Copy CRC 45ABDC29
Accurately ripped (confidence 1) [2651BC6C] (AR v1)
Copy OK
Track 8
Filename C:\What CD\European Episode\08 Tu Es Nicht.wav
Pre-gap length 0:00:02.00
Peak level 100.0 %
Extraction speed 3.0 X
Track quality 100.0 %
Test CRC 637DEDD5
Copy CRC 637DEDD5
Accurately ripped (confidence 1) [E2ABE05F] (AR v1)
Copy OK
Track 9
Filename C:\What CD\European Episode\09 Nasses Handtuch.wav
Pre-gap length 0:00:02.00
Peak level 100.0 %
Extraction speed 3.2 X
Track quality 100.0 %
Test CRC 4A4B1CD9
Copy CRC 4A4B1CD9
Accurately ripped (confidence 1) [75E0CF50] (AR v1)
Copy OK
Track 10
Filename C:\What CD\European Episode\10 Tatsächlich.wav
Pre-gap length 0:00:02.00
Peak level 100.0 %
Extraction speed 3.6 X
Track quality 100.0 %
Test CRC 86A6DEC1
Copy CRC 86A6DEC1
Accurately ripped (confidence 1) [556210DC] (AR v1)
Copy OK
Track 11
Filename C:\What CD\European Episode\11 Rumba Brutal.wav
Pre-gap length 0:00:02.00
Peak level 100.0 %
Extraction speed 3.6 X
Track quality 100.0 %
Test CRC 887CF755
Copy CRC 887CF755
Accurately ripped (confidence 1) [DCBC9E78] (AR v1)
Copy OK
Track 12
Filename C:\What CD\European Episode\12 Hopfen.wav
Pre-gap length 0:00:02.00
Peak level 100.0 %
Extraction speed 3.7 X
Track quality 100.0 %
Test CRC 3652A87B
Copy CRC 3652A87B
Accurately ripped (confidence 1) [46317759] (AR v1)
Copy OK
Track 13
Filename C:\What CD\European Episode\13 Schienenersatzverkehr.wav
Pre-gap length 0:00:02.00
Peak level 100.0 %
Extraction speed 3.7 X
Track quality 100.0 %
Test CRC 5D5FDA4C
Copy CRC 5D5FDA4C
Accurately ripped (confidence 1) [0EFCD851] (AR v1)
Copy OK
Track 14
Filename C:\What CD\European Episode\14 Bruno.wav
Pre-gap length 0:00:02.00
Peak level 100.0 %
Extraction speed 4.0 X
Track quality 100.0 %
Test CRC A77880A3
Copy CRC A77880A3
Accurately ripped (confidence 1) [AB74E4D2] (AR v1)
Copy OK
All tracks accurately ripped
No errors occurred
End of status report
==== Log checksum 4F7AF104AA739A49AA9AD8B92EDF1F96FA9B73ED4DAB639A85F81B8E3A1E9C59 ====
 
.cue
REM GENRE Jazz
REM DATE 2009
REM DISCID AA0DDD0E
REM COMMENT "ExactAudioCopy v1.0b3"
PERFORMER "Die Enttäuschung"
TITLE "Die Enttäuschung"
FILE "01 Rocket In The Pocket.wav" WAVE
TRACK 01 AUDIO
TITLE "Rocket In The Pocket"
PERFORMER "Die Enttäuschung"
INDEX 01 00:00:00
TRACK 02 AUDIO
TITLE "Tja"
PERFORMER "Die Enttäuschung"
INDEX 00 04:28:69
FILE "02 Tja.wav" WAVE
INDEX 01 00:00:00
TRACK 03 AUDIO
TITLE "Uotenniw"
PERFORMER "Die Enttäuschung"
INDEX 00 02:39:15
FILE "03 Uotenniw.wav" WAVE
INDEX 01 00:00:00
TRACK 04 AUDIO
TITLE "Wiener Schnitzel"
PERFORMER "Die Enttäuschung"
INDEX 00 03:54:13
FILE "04 Wiener Schnitzel.wav" WAVE
INDEX 01 00:00:00
TRACK 05 AUDIO
TITLE "Salty Dog"
PERFORMER "Die Enttäuschung"
INDEX 00 02:48:39
FILE "05 Salty Dog.wav" WAVE
INDEX 01 00:00:00
TRACK 06 AUDIO
TITLE "For Quarts Only"
PERFORMER "Die Enttäuschung"
INDEX 00 04:41:50
FILE "06 For Quarts Only.wav" WAVE
INDEX 01 00:00:00
TRACK 07 AUDIO
TITLE "Tinnef"
PERFORMER "Die Enttäuschung"
INDEX 00 04:24:13
FILE "07 Tinnef.wav" WAVE
INDEX 01 00:00:00
TRACK 08 AUDIO
TITLE "Tu Es Nicht"
PERFORMER "Die Enttäuschung"
INDEX 00 05:24:50
FILE "08 Tu Es Nicht.wav" WAVE
INDEX 01 00:00:00
TRACK 09 AUDIO
TITLE "Nasses Handtuch"
PERFORMER "Die Enttäuschung"
INDEX 00 03:21:00
FILE "09 Nasses Handtuch.wav" WAVE
INDEX 01 00:00:00
TRACK 10 AUDIO
TITLE "Tatsächlich"
PERFORMER "Die Enttäuschung"
INDEX 00 04:03:46
FILE "10 Tatsächlich.wav" WAVE
INDEX 01 00:00:00
TRACK 11 AUDIO
TITLE "Rumba Brutal"
PERFORMER "Die Enttäuschung"
INDEX 00 05:50:25
FILE "11 Rumba Brutal.wav" WAVE
INDEX 01 00:00:00
TRACK 12 AUDIO
TITLE "Hopfen"
PERFORMER "Die Enttäuschung"
INDEX 00 04:58:25
FILE "12 Hopfen.wav" WAVE
INDEX 01 00:00:00
TRACK 13 AUDIO
TITLE "Schienenersatzverkehr"
PERFORMER "Die Enttäuschung"
INDEX 00 03:51:59
FILE "13 Schienenersatzverkehr.wav" WAVE
INDEX 01 00:00:00
TRACK 14 AUDIO
TITLE "Bruno"
PERFORMER "Die Enttäuschung"
INDEX 00 03:37:28
FILE "14 Bruno.wav" WAVE
INDEX 01 00:00:00
 
.accurip
[CUETools log; Date: 15/04/14 15:53:51; Version: 2.1.4]
[CTDB TOCID: MINDdcBvQbAvX92zY5R8X7caWeU-] found.
Track | CTDB Status
1 | (2/2) Accurately ripped
2 | (2/2) Accurately ripped
3 | (2/2) Accurately ripped
4 | (2/2) Accurately ripped
5 | (2/2) Accurately ripped
6 | (2/2) Accurately ripped
7 | (2/2) Accurately ripped
8 | (2/2) Accurately ripped
9 | (2/2) Accurately ripped
10 | (2/2) Accurately ripped
11 | (2/2) Accurately ripped
12 | (2/2) Accurately ripped
13 | (2/2) Accurately ripped
14 | (2/2) Accurately ripped
[AccurateRip ID: 001d6f84-013e131d-aa0ddd0e] found.
Track [ CRC | V2 ] Status
01 [f23deb0c|39a20155] (1+1/2) Accurately ripped
02 [cd64de60|25e33aff] (1+1/2) Accurately ripped
03 [a5c7dee9|a8a9d096] (1+1/2) Accurately ripped
04 [e28c64a9|90086bcb] (1+1/2) Accurately ripped
05 [c35675b8|ea1a72c1] (1+1/2) Accurately ripped
06 [964163c6|bdaa55b7] (1+1/2) Accurately ripped
07 [2651bc6c|b3a6cd9e] (1+1/2) Accurately ripped
08 [e2abe05f|2ddc7a86] (1+1/2) Accurately ripped
09 [75e0cf50|6c1013fd] (1+1/2) Accurately ripped
10 [556210dc|15d2ac33] (1+1/2) Accurately ripped
11 [dcbc9e78|d5418d4f] (1+1/2) Accurately ripped
12 [46317759|e3555109] (1+1/2) Accurately ripped
13 [0efcd851|1982a7b3] (1+1/2) Accurately ripped
14 [ab74e4d2|b4d7299d] (1+1/2) Accurately ripped
Track Peak [ CRC32 ] [W/O NULL] [ LOG ]
-- 100.0 [87031FC1] [A4504B67]
01 100.0 [0F358E2C] [C0CEE8FD] CRC32
02 100.0 [947EFE8C] [1F2E4EFB] CRC32
03 100.0 [7065CE30] [8D196874] CRC32
04 85.8 [887EA89E] [E4D10F56] CRC32
05 100.0 [A18D320C] [F3CA5C3D] CRC32
06 100.0 [0252DF8B] [3E2BCC6E] CRC32
07 100.0 [45ABDC29] [A56C21EC] CRC32
08 100.0 [637DEDD5] [950CD761] CRC32
09 100.0 [4A4B1CD9] [4BF0A586] CRC32
10 100.0 [86A6DEC1] [0764A0DB] CRC32
11 100.0 [887CF755] [3AD17DAA] CRC32
12 100.0 [3652A87B] [C15C34B3] CRC32
13 100.0 [5D5FDA4C] [E1E8CCFB] CRC32
14 100.0 [A77880A3] [C8AEF36F] CRC32

http://www.discogs.com/Die-Entt%C3%A4uschung-5/release/1926288
другие релизы
По всем вопросам пишите личное сообщение пользователю M0p94ok.
01:13
167
Нет комментариев. Ваш будет первым!