Поиск

(Contemporary Jazz, Free Improvisation) [CD] Joe Morris Quartet (Mat Maneri, Chris Lightcap, Gerald Cleaver) - Underthru - 1999, FLAC (image+.cue), lossless

(Contemporary Jazz, Free Improvisation) [CD] Joe Morris Quartet (Mat Maneri, Chris Lightcap, Gerald Cleaver) - Underthru - 1999, FLAC (image+.cue), lossless
Joe Morris Quartet / Underthru
Жанр: Contemporary Jazz, Free Improvisation
Носитель: CD
Страна-производитель диска: US
Год издания: 1999
Издатель (лейбл): OmniTone
Номер по каталогу: 11904
Аудиокодек: FLAC (*.flac)
Тип рипа: image+.cue
Битрейт аудио: lossless
Продолжительность: 63:54
Источник (релизер): CD
Наличие сканов в содержимом раздачи: нет
Треклист:
1 Underthru 16:24
2 Remarks 14:27
3 Routine Three 10:18
4 Two Busses And A Long Walk 14:14
5 Manipulatives 8:20
 
Лог создания рипа
Exact Audio Copy V1.0 beta 2 from 29. April 2011
EAC extraction logfile from 15. April 2014, 18:02
Joe Morris Quartet / Underthru
Used drive : Optiarc DVD RW AD-7170A Adapter: 0 ID: 0
Read mode : Secure
Utilize accurate stream : Yes
Defeat audio cache : Yes
Make use of C2 pointers : No
Read offset correction : 48
Overread into Lead-In and Lead-Out : No
Fill up missing offset samples with silence : Yes
Delete leading and trailing silent blocks : No
Null samples used in CRC calculations : Yes
Used interface : Native Win32 interface for Win NT & 2000
Used output format : User Defined Encoder
Selected bitrate : 320 kBit/s
Quality : High
Add ID3 tag : No
Command line compressor : C:\Program Files\Exact Audio Copy\Flac\flac.exe
Additional command line options : -V -8 -T "Date=%year%" -T "Genre=%genre%" %source%
TOC of the extracted CD
Track | Start | Length | Start sector | End sector
---------------------------------------------------------
1 | 0:00.00 | 16:27.07 | 0 | 74031
2 | 16:27.07 | 14:29.50 | 74032 | 139256
3 | 30:56.57 | 10:20.65 | 139257 | 185821
4 | 41:17.47 | 14:16.70 | 185822 | 250091
5 | 55:34.42 | 8:20.23 | 250092 | 287614
Range status and errors
Selected range
Filename K:\ЕАС\Joe Morris Quartet - Underthru.wav
Peak level 99.9 %
Extraction speed 2.0 X
Range quality 100.0 %
Test CRC CBE352EC
Copy CRC CBE352EC
Copy OK
No errors occurred
AccurateRip summary
Track 1 accurately ripped (confidence 2) [F5A7FC27] (AR v1)
Track 2 accurately ripped (confidence 2) [45F411CD] (AR v1)
Track 3 accurately ripped (confidence 2) [8642B95C] (AR v1)
Track 4 accurately ripped (confidence 2) [D8402CC2] (AR v1)
Track 5 accurately ripped (confidence 2) [B59A21A4] (AR v1)
All tracks accurately ripped
End of status report
==== Log checksum 4D85ADBF7CE04856000FD2E2CE31531BE126B0AAEC167CAC10BBDFD7426172B2 ====
 
Содержание индексной карты (.CUE)
REM GENRE Jazz
REM DATE 1999
REM DISCID 570EFA05
REM COMMENT "ExactAudioCopy v1.0b2"
PERFORMER "Joe Morris Quartet"
TITLE "Underthru"
FILE "Joe Morris Quartet - Underthru.flac" WAVE
TRACK 01 AUDIO
TITLE "Underthru"
PERFORMER "Joe Morris Quartet"
ISRC 000000000000
INDEX 01 00:00:00
TRACK 02 AUDIO
TITLE "Remarks"
PERFORMER "Joe Morris Quartet"
ISRC 000000000000
INDEX 00 16:24:40
INDEX 01 16:27:07
TRACK 03 AUDIO
TITLE "Routine Three"
PERFORMER "Joe Morris Quartet"
ISRC 000000000000
INDEX 00 30:54:22
INDEX 01 30:56:57
TRACK 04 AUDIO
TITLE "Two Busses and a Long Walk"
PERFORMER "Joe Morris Quartet"
ISRC 000000000000
INDEX 00 41:15:07
INDEX 01 41:17:47
TRACK 05 AUDIO
TITLE "Manipulatives"
PERFORMER "Joe Morris Quartet"
ISRC 000000000000
INDEX 00 55:32:00
INDEX 01 55:34:42
Доп. информация: Recorded and mixed at PBS Studios, Westwood, MA on 18 March 1999.
 
Об альбоме (сборнике)
There's no doubt Morris is an original electric jazz guitarist. Though short of Sonny Sharrock energy-wise and Derek Bailey in terms of innovation, Morris nonetheless holds high qualities of inventiveness, singular purpose, and individual vision. His is a spare, amplified, but not treated sound, thin on fiber and bulk but allowing those staccato notes to softly sing. Bassist Chris Lightcap, violinist Mat Maneri, and drummer Gerald Cleaver are all quite capable musicians well aware of what Morris seeks. They collectively fuel the smoldering embers with sight lines of their own. It is music firmly in the modern avant-garde, with signals from both underground and outer space informing but not dictating terms. The five compositions from Morris are all quite long, starting with the 16-minute title track. A bass-drums workout shows Lightcap and Cleaver can get next to these juxtaposed notions, as well. "Remarks" is more conversational, a dirge blues with free intentions and melodies that flow then stop, flow then stop, repeated through the entire piece. Cleaver in particular has a handle on these changes; he seems to be initiating them with no cue from Morris. Blues beats morph unexpectedly at his command, and there's a peculiar reference to "Stormy Weather." More obtuse is a 6/4 to 4/4 in "Routine Three," which is very angular and Thelonious Monk-ish in nature. It swings on its own terms. "Two Busses and a Long Walk" is termed by Morris as a "flowthrough" composition with bass, drums, violin, and guitar. None of the four establish but a squint of melody, and hot water sounds swirl around and around. "Manipulatives" is a launching pad for ideas to shoot forth simultaneously, decidedly free and unabashed, with Lightcap's best solo. Morris has an individualist's attitude which produces music that is not for everyone, but certainly well within listenable parameters. Timidity or resting on laurels is not in the vocabulary of this unique musician.
 
Состав
Bass – Chris Lightcap
Drums – Gerald Cleaver
Guitar, Producer – Joe Morris
Violin, Violin [Baritone] – Mat Maneri
01:11
295
Нет комментариев. Ваш будет первым!