Вы используете незарегистрированную версию компонента "Вкладки"!

Поиск

(Free Improvisation, Contemporary Jazz) [CD] Joe Morris (Karen Borca, Rob Brown, Andrea Parkins) - Many Rings - 1999, FLAC (image+.cue), lossless

(Free Improvisation, Contemporary Jazz) [CD] Joe Morris (Karen Borca, Rob Brown, Andrea Parkins) - Many Rings - 1999, FLAC (image+.cue), lossless
Треклист:
Joe Morris / Many Rings
Жанр: Free Improvisation, Contemporary Jazz
Носитель: CD
Страна-производитель диска: US
Год издания: 1999
Издатель (лейбл): Knitting Factory Works
Номер по каталогу: KFR-243
Аудиокодек: FLAC (*.flac)
Тип рипа: image+.cue
Битрейт аудио: lossless
Продолжительность: 62:40
Источник (релизер): CD
Наличие сканов в содержимом раздачи: нет
Треклист:
1 Drawn To The Magnet 5:52
2 Many Rings 14:25
3 First Appearance 4:25
4 Chapel Level 10:35
5 Motion To The Air 3:28
6 Situation To Be In 5:15
7 Small Cycle 11:06
8 Blue Spots There 7:31
 
Лог создания рипа
Exact Audio Copy V1.0 beta 2 from 29. April 2011
EAC extraction logfile from 15. April 2014, 13:01
Joe Morris / Many Rings
Used drive : Optiarc DVD RW AD-7170A Adapter: 0 ID: 0
Read mode : Secure
Utilize accurate stream : Yes
Defeat audio cache : Yes
Make use of C2 pointers : No
Read offset correction : 48
Overread into Lead-In and Lead-Out : No
Fill up missing offset samples with silence : Yes
Delete leading and trailing silent blocks : No
Null samples used in CRC calculations : Yes
Used interface : Native Win32 interface for Win NT & 2000
Used output format : User Defined Encoder
Selected bitrate : 320 kBit/s
Quality : High
Add ID3 tag : No
Command line compressor : C:\Program Files\Exact Audio Copy\Flac\flac.exe
Additional command line options : -V -8 -T "Date=%year%" -T "Genre=%genre%" %source%
TOC of the extracted CD
Track | Start | Length | Start sector | End sector
---------------------------------------------------------
1 | 0:00.00 | 5:53.68 | 0 | 26542
2 | 5:53.68 | 14:24.34 | 26543 | 91376
3 | 20:18.27 | 4:25.53 | 91377 | 111304
4 | 24:44.05 | 10:37.08 | 111305 | 159087
5 | 35:21.13 | 3:26.60 | 159088 | 174597
6 | 38:47.73 | 5:14.50 | 174598 | 198197
7 | 44:02.48 | 11:06.21 | 198198 | 248168
8 | 55:08.69 | 7:31.56 | 248169 | 282049
Range status and errors
Selected range
Filename K:\ЕАС\Joe Morris - Many Rings.wav
Peak level 100.0 %
Extraction speed 2.0 X
Range quality 99.9 %
Test CRC 9B26C060
Copy CRC 9B26C060
Copy OK
No errors occurred
AccurateRip summary
Track 1 accurately ripped (confidence 1) [99728C3A] (AR v1)
Track 2 accurately ripped (confidence 1) [A5F0E102] (AR v1)
Track 3 accurately ripped (confidence 1) [0048A8DC] (AR v1)
Track 4 accurately ripped (confidence 1) [B62621BD] (AR v1)
Track 5 accurately ripped (confidence 1) [AC551BB6] (AR v1)
Track 6 accurately ripped (confidence 1) [AF30EB25] (AR v1)
Track 7 accurately ripped (confidence 1) [0E2598EE] (AR v1)
Track 8 accurately ripped (confidence 1) [EC271CFC] (AR v1)
All tracks accurately ripped
End of status report
==== Log checksum A1211A9CF80A0D990EE617D20792A2855D6138A382CFA4BB13BE61D28E85C76B ====
 
Содержание индексной карты (.CUE)
REM GENRE Jazz
REM DATE 1999
REM DISCID 560EB008
REM COMMENT "ExactAudioCopy v1.0b2"
PERFORMER "Joe Morris"
TITLE "Many Rings"
FILE "Joe Morris - Many Rings.flac" WAVE
TRACK 01 AUDIO
TITLE "Drawn to the Magnet"
PERFORMER "Joe Morris"
ISRC 000000000000
INDEX 01 00:00:00
TRACK 02 AUDIO
TITLE "Many Rings"
PERFORMER "Joe Morris"
ISRC 000000000000
INDEX 01 05:53:68
TRACK 03 AUDIO
TITLE "First Appearance"
PERFORMER "Joe Morris"
ISRC 000000000000
INDEX 01 20:18:27
TRACK 04 AUDIO
TITLE "Chapel Level"
PERFORMER "Joe Morris"
ISRC 000000000000
INDEX 01 24:44:05
TRACK 05 AUDIO
TITLE "Motion to the Air"
PERFORMER "Joe Morris"
ISRC 000000000000
INDEX 01 35:21:13
TRACK 06 AUDIO
TITLE "Situation to Be In"
PERFORMER "Joe Morris"
ISRC 000000000000
INDEX 01 38:47:73
TRACK 07 AUDIO
TITLE "Small Cycle"
PERFORMER "Joe Morris"
ISRC 000000000000
INDEX 01 44:02:48
TRACK 08 AUDIO
TITLE "Blue Spots There"
PERFORMER "Joe Morris"
ISRC 000000000000
INDEX 01 55:08:69
Доп. информация: Engineered, mixed & mastered at Knitting Factory Recording Studios, New York, NY on 5 February 1999.
 
Об альбоме (сборнике)
Collective improvisation is something that has been a rarity in most types of jazz. It has been common in Dixieland, and Charles Mingus thrived on it. But most jazz--whether it's swing, hard bop, post-bop, fusion, soul-jazz, Latin jazz or bossa nova--has favored a head/solos/head format. Guitarist Joe Morris, however, shows us how appealing collective improvisation can be on Many Rings, a free-form session uniting the guitarist with bassoon player Karen Borca, alto saxman/flutist Rob Brown and accordion player Andrea Parkins. This is hardly a session in which the quartet states the theme and the players take turns blowing--when Morris is soloing, you never know who will jump in and respond with some blowing of his or her own. Musical democracy prevails on such abstract offerings as "Motion to the Air" and "Drawn to the Magnet," and yet, Many Rings doesn't go for all-out pandemonium. Because the players are very much in sync, unplanned solos generally make sense on this album--if Morris is blowing and Brown or Borca decide it's time to jump in and add something to the conversation, their comments are, for the most part, appropriate. Obviously, music this free-form isn't for everyone, but for those who appreciate and comprehend free jazz, Many Rings is worth picking up.
 
Состав
Accordion, Sampler – Andrea Parkins
Bassoon – Karen Borca
Guitar, Producer – Joe Morris
Saxophone [Alto], Flute – Rob Brown
По всем вопросам пишите личное сообщение пользователю M0p94ok.
01:11
157
Нет комментариев. Ваш будет первым!