Вы используете незарегистрированную версию компонента "Вкладки"!

Поиск

(Free Jazz, Free Improvisation) [CD] Joe Morris, Ken Vandermark, Hans Poppel - Like Rays - 1998, FLAC (image+.cue), lossless

(Free Jazz, Free Improvisation) [CD] Joe Morris, Ken Vandermark, Hans Poppel - Like Rays - 1998, FLAC (image+.cue), lossless
Треклист:
Joe Morris, Ken Vandermark, Hans Poppel / Like Rays
Жанр: Free Jazz, Free Improvisation
Носитель: CD
Страна-производитель диска: US
Год издания: 1998
Издатель (лейбл): Knitting Factory Works
Номер по каталогу: KFR-224
Аудиокодек: FLAC (*.flac)
Тип рипа: image+.cue
Битрейт аудио: lossless
Продолжительность: 61:20
Источник (релизер): CD
Наличие сканов в содержимом раздачи: нет
Треклист:
1 Photon 1:20
2 New Fire 3:06
3 Within Reach 5:27
4 Like Rays 7:56
5 So As To Touch 7:32
6 Life Stuff 5:44
7 Parlance 4:54
8 I Can Live With That 6:22
9 Hand Signals 7:39
10 From Dreams 8:54
11 Levitate 2:05
 
Лог создания рипа
Exact Audio Copy V1.0 beta 2 from 29. April 2011
EAC extraction logfile from 15. April 2014, 16:36
Joe Morris , Ken Vandermark , Hans Poppel / Like Rays
Used drive : Optiarc DVD RW AD-7170A Adapter: 0 ID: 0
Read mode : Secure
Utilize accurate stream : Yes
Defeat audio cache : Yes
Make use of C2 pointers : No
Read offset correction : 48
Overread into Lead-In and Lead-Out : No
Fill up missing offset samples with silence : Yes
Delete leading and trailing silent blocks : No
Null samples used in CRC calculations : Yes
Used interface : Native Win32 interface for Win NT & 2000
Used output format : User Defined Encoder
Selected bitrate : 320 kBit/s
Quality : High
Add ID3 tag : No
Command line compressor : C:\Program Files\Exact Audio Copy\Flac\flac.exe
Additional command line options : -V -8 -T "Date=%year%" -T "Genre=%genre%" %source%
TOC of the extracted CD
Track | Start | Length | Start sector | End sector
---------------------------------------------------------
1 | 0:00.00 | 1:21.74 | 0 | 6148
2 | 1:21.74 | 3:07.72 | 6149 | 20245
3 | 4:29.71 | 5:29.27 | 20246 | 44947
4 | 9:59.23 | 7:57.65 | 44948 | 80787
5 | 17:57.13 | 7:34.25 | 80788 | 114862
6 | 25:31.38 | 5:46.13 | 114863 | 140825
7 | 31:17.51 | 4:55.43 | 140826 | 162993
8 | 36:13.19 | 6:23.74 | 162994 | 191792
9 | 42:37.18 | 7:41.40 | 191793 | 226407
10 | 50:18.58 | 8:55.65 | 226408 | 266597
11 | 59:14.48 | 2:05.35 | 266598 | 276007
Range status and errors
Selected range
Filename K:\ЕАС\Joe Morris , Ken Vandermark , Hans Poppel - Like Rays.wav
Peak level 88.6 %
Extraction speed 2.1 X
Range quality 100.0 %
Test CRC 3EEC5B27
Copy CRC 3EEC5B27
Copy OK
No errors occurred
AccurateRip summary
Track 1 accurately ripped (confidence 2) [E833C37B] (AR v1)
Track 2 accurately ripped (confidence 2) [F7CBF059] (AR v1)
Track 3 accurately ripped (confidence 2) [5A916A47] (AR v1)
Track 4 accurately ripped (confidence 2) [5CBE0188] (AR v1)
Track 5 accurately ripped (confidence 2) [CF7842D7] (AR v1)
Track 6 accurately ripped (confidence 2) [CF437BF6] (AR v1)
Track 7 accurately ripped (confidence 2) [0C24DA6E] (AR v1)
Track 8 accurately ripped (confidence 2) [89C8F5C4] (AR v1)
Track 9 accurately ripped (confidence 2) [B36E014A] (AR v1)
Track 10 accurately ripped (confidence 2) [514BB657] (AR v1)
Track 11 accurately ripped (confidence 2) [4F4CC325] (AR v1)
All tracks accurately ripped
End of status report
==== Log checksum 02025CC7DE0C2E104A0D86532BF21FC5A00E0CF3BE89D049A07F69B1BC986593 ====
 
Содержание индексной карты (.CUE)
REM GENRE Jazz
REM DATE 1996
REM DISCID 900E600B
REM COMMENT "ExactAudioCopy v1.0b2"
CATALOG 0000000000000
PERFORMER "Joe Morris , Ken Vandermark , Hans Poppel"
TITLE "Like Rays"
FILE "Joe Morris , Ken Vandermark , Hans Poppel - Like Rays.flac" WAVE
TRACK 01 AUDIO
TITLE "Photon"
PERFORMER "Joe Morris , Ken Vandermark , Hans Poppel"
ISRC 000000000000
FLAGS DCP
INDEX 01 00:00:00
TRACK 02 AUDIO
TITLE "New Fire"
PERFORMER "Joe Morris , Ken Vandermark , Hans Poppel"
ISRC 000000000000
FLAGS DCP
INDEX 00 01:20:29
INDEX 01 01:21:74
TRACK 03 AUDIO
TITLE "Within Reach"
PERFORMER "Joe Morris , Ken Vandermark , Hans Poppel"
ISRC 000000000000
FLAGS DCP
INDEX 00 04:28:26
INDEX 01 04:29:71
TRACK 04 AUDIO
TITLE "Like Rays"
PERFORMER "Joe Morris , Ken Vandermark , Hans Poppel"
ISRC 000000000000
FLAGS DCP
INDEX 00 09:57:53
INDEX 01 09:59:23
TRACK 05 AUDIO
TITLE "So As To Touch"
PERFORMER "Joe Morris , Ken Vandermark , Hans Poppel"
ISRC 000000000000
FLAGS DCP
INDEX 00 17:55:43
INDEX 01 17:57:13
TRACK 06 AUDIO
TITLE "Life Stuff"
PERFORMER "Joe Morris , Ken Vandermark , Hans Poppel"
ISRC 000000000000
FLAGS DCP
INDEX 00 25:29:68
INDEX 01 25:31:38
TRACK 07 AUDIO
TITLE "Parlance"
PERFORMER "Joe Morris , Ken Vandermark , Hans Poppel"
ISRC 000000000000
FLAGS DCP
INDEX 00 31:16:06
INDEX 01 31:17:51
TRACK 08 AUDIO
TITLE "I Can Live With That"
PERFORMER "Joe Morris , Ken Vandermark , Hans Poppel"
ISRC 000000000000
FLAGS DCP
INDEX 00 36:11:49
INDEX 01 36:13:19
TRACK 09 AUDIO
TITLE "Hand Signals"
PERFORMER "Joe Morris , Ken Vandermark , Hans Poppel"
ISRC 000000000000
FLAGS DCP
INDEX 00 42:35:48
INDEX 01 42:37:18
TRACK 10 AUDIO
TITLE "From Dreams"
PERFORMER "Joe Morris , Ken Vandermark , Hans Poppel"
ISRC 000000000000
FLAGS DCP
INDEX 00 50:17:13
INDEX 01 50:18:58
TRACK 11 AUDIO
TITLE "Levitate"
PERFORMER "Joe Morris , Ken Vandermark , Hans Poppel"
ISRC 000000000000
FLAGS DCP
INDEX 00 59:13:03
INDEX 01 59:14:48
Доп. информация: Recorded June 1996 at Stephonia Studios, Concord, Mass. Mixed at Knitting Factory Studios, March 6, 1998.
 
Состав
Clarinet, Bass Clarinet – Ken Vandermark
Electric Guitar – Joe Morris
Piano – Hans Poppel
По всем вопросам пишите личное сообщение пользователю M0p94ok.
01:10
172
Нет комментариев. Ваш будет первым!