Вы используете незарегистрированную версию компонента "Вкладки"!

Поиск

(avant-garde, free jazz) [cd], London Improvisers Orchestra - Lio Leo Leon 2010 FLAC (tracks+.cue), lossless

(avant-garde, free jazz) [cd], London Improvisers Orchestra - Lio Leo Leon 2010 FLAC (tracks+.cue), lossless
Треклист:


London Improvisers Orchestra - Lio Leo Leon 2010

Жанр: avant-garde, free jazz
Год выпуска: 2010
Издатель (лейбл):psi 11.04
Формат: FLAC (tracks+.cue)
Битрейт аудио: lossless
Продолжительность 1`12`19
Источник: what.cd, 6060842

tracks
1. Before Tapping (8:15) improvisation
2. Wiretapping (12:36) Conductor: Alison Blunt
3. After Tapping (4:22) improvisation
4. Concerto For Soft-loud Keybox No.2 (10:02) Conductor: Steve Beresford, Piano: Leon Michener
5. Inhale, Exhale (14:12) Conductor: Philipp Wachsmann
6. Numbers Listening (5:48) Conductor: Caroline Kraabel
7. After Numbers (4:18) improvisation
8. Concerto for Ishmael Wadada Leo Smith & Orchestra (12:36) Conductor: Dave Tucker, Trumpet: Ishmael Wadada Leo Smith


 
.log
X Lossless Decoder version 20130720 (144.0)
XLD extraction logfile from 2013-08-12 19:38:07 +0400
London Improvisers Orchestra / Lio Leo Leon
Used drive : HL-DT-ST DVDRW GX30N (revision RP09)
Media type : Pressed CD
Ripper mode : XLD Secure Ripper
Disable audio cache : OK for the drive with a cache less than 1375KiB
Make use of C2 pointers : NO
Read offset correction : 6
Max retry count : 100
Gap status : Analyzed, Appended (except HTOA)
TOC of the extracted CD
Track | Start | Length | Start sector | End sector
---------------------------------------------------------
1 | 00:00:00 | 08:15:55 | 0 | 37179
2 | 08:15:55 | 12:35:69 | 37180 | 93873
3 | 20:51:49 | 04:22:08 | 93874 | 113531
4 | 25:13:57 | 10:10:19 | 113532 | 159300
5 | 35:24:01 | 14:12:33 | 159301 | 223233
6 | 49:36:34 | 05:47:65 | 223234 | 249323
7 | 55:24:24 | 04:17:73 | 249324 | 268671
8 | 59:42:22 | 12:36:28 | 268672 | 325399
AccurateRip Summary (DiscID: 00167035-00951130-7410f208)
Track 01 : OK (v2, confidence 1/1)
Track 02 : OK (v2, confidence 1/1)
Track 03 : OK (v2, confidence 1/1)
Track 04 : OK (v2, confidence 1/1)
Track 05 : OK (v2, confidence 1/1)
Track 06 : OK (v2, confidence 1/1)
Track 07 : OK (v2, confidence 1/1)
Track 08 : OK (v2, confidence 1/1)
->All tracks accurately ripped.
All Tracks
Album gain : -4.62 dB
Peak : 0.999969
Statistics
Read error : 0
Jitter error (maybe fixed) : 0
Retry sector count : 0
Damaged sector count : 0
Track 01
Filename : /Users/anch/Music/FLAC/London Improvisers Orchestra - 2010 - Lio Leo Leon [MP3 320]/01 - Before Tapping.mp3
/Users/anch/Music/FLAC/London Improvisers Orchestra - 2010 - Lio Leo Leon [MP3 V0]/01 - Before Tapping.mp3
/Users/anch/Music/FLAC/London Improvisers Orchestra - 2010 - Lio Leo Leon [FLAC]/01 - Before Tapping.flac
Pre-gap length : 00:02:00
Track gain : -3.74 dB
Peak : 0.999939
CRC32 hash (test run) : B3F6168B
CRC32 hash : B3F6168B
CRC32 hash (skip zero) : D311B9FE
AccurateRip v1 signature : C069E99F
AccurateRip v2 signature : BE3868D3
->Accurately ripped (v2, confidence 1/1)
Statistics
Read error : 0
Jitter error (maybe fixed) : 0
Retry sector count : 0
Damaged sector count : 0
Track 02
Filename : /Users/anch/Music/FLAC/London Improvisers Orchestra - 2010 - Lio Leo Leon [MP3 320]/02 - Wiretapping.mp3
/Users/anch/Music/FLAC/London Improvisers Orchestra - 2010 - Lio Leo Leon [MP3 V0]/02 - Wiretapping.mp3
/Users/anch/Music/FLAC/London Improvisers Orchestra - 2010 - Lio Leo Leon [FLAC]/02 - Wiretapping.flac
Track gain : -4.03 dB
Peak : 0.978027
CRC32 hash (test run) : 98835C2D
CRC32 hash : 98835C2D
CRC32 hash (skip zero) : 89BF7100
AccurateRip v1 signature : 83D0B7B5
AccurateRip v2 signature : 5DD8B402
->Accurately ripped (v2, confidence 1/1)
Statistics
Read error : 0
Jitter error (maybe fixed) : 0
Retry sector count : 0
Damaged sector count : 0
Track 03
Filename : /Users/anch/Music/FLAC/London Improvisers Orchestra - 2010 - Lio Leo Leon [MP3 320]/03 - After Tapping.mp3
/Users/anch/Music/FLAC/London Improvisers Orchestra - 2010 - Lio Leo Leon [MP3 V0]/03 - After Tapping.mp3
/Users/anch/Music/FLAC/London Improvisers Orchestra - 2010 - Lio Leo Leon [FLAC]/03 - After Tapping.flac
Track gain : -3.90 dB
Peak : 0.965393
CRC32 hash (test run) : 3BF0A7EE
CRC32 hash : 3BF0A7EE
CRC32 hash (skip zero) : 96244CE8
AccurateRip v1 signature : 6B7E9E38
AccurateRip v2 signature : 867FCA7A
->Accurately ripped (v2, confidence 1/1)
Statistics
Read error : 0
Jitter error (maybe fixed) : 0
Retry sector count : 0
Damaged sector count : 0
Track 04
Filename : /Users/anch/Music/FLAC/London Improvisers Orchestra - 2010 - Lio Leo Leon [MP3 320]/04 - Concerto For Soft-Loud Key-Box No. 2.mp3
/Users/anch/Music/FLAC/London Improvisers Orchestra - 2010 - Lio Leo Leon [MP3 V0]/04 - Concerto For Soft-Loud Key-Box No. 2.mp3
/Users/anch/Music/FLAC/London Improvisers Orchestra - 2010 - Lio Leo Leon [FLAC]/04 - Concerto For Soft-Loud Key-Box No. 2.flac
Track gain : -4.59 dB
Peak : 0.987946
CRC32 hash (test run) : 83401672
CRC32 hash : 83401672
CRC32 hash (skip zero) : 592E5BBD
AccurateRip v1 signature : 340D8752
AccurateRip v2 signature : EB1E90BE
->Accurately ripped (v2, confidence 1/1)
Statistics
Read error : 0
Jitter error (maybe fixed) : 0
Retry sector count : 0
Damaged sector count : 0
Track 05
Filename : /Users/anch/Music/FLAC/London Improvisers Orchestra - 2010 - Lio Leo Leon [MP3 320]/05 - Inhale Exhale.mp3
/Users/anch/Music/FLAC/London Improvisers Orchestra - 2010 - Lio Leo Leon [MP3 V0]/05 - Inhale Exhale.mp3
/Users/anch/Music/FLAC/London Improvisers Orchestra - 2010 - Lio Leo Leon [FLAC]/05 - Inhale Exhale.flac
Track gain : -5.00 dB
Peak : 0.999725
CRC32 hash (test run) : 59AE0670
CRC32 hash : 59AE0670
CRC32 hash (skip zero) : 58FDEF80
AccurateRip v1 signature : E8F0D5DF
AccurateRip v2 signature : C6092B0A
->Accurately ripped (v2, confidence 1/1)
Statistics
Read error : 0
Jitter error (maybe fixed) : 0
Retry sector count : 0
Damaged sector count : 0
Track 06
Filename : /Users/anch/Music/FLAC/London Improvisers Orchestra - 2010 - Lio Leo Leon [MP3 320]/06 - Numbers Listening.mp3
/Users/anch/Music/FLAC/London Improvisers Orchestra - 2010 - Lio Leo Leon [MP3 V0]/06 - Numbers Listening.mp3
/Users/anch/Music/FLAC/London Improvisers Orchestra - 2010 - Lio Leo Leon [FLAC]/06 - Numbers Listening.flac
Track gain : 8.31 dB
Peak : 0.516266
CRC32 hash (test run) : 04F4F996
CRC32 hash : 04F4F996
CRC32 hash (skip zero) : F498F721
AccurateRip v1 signature : 6088286A
AccurateRip v2 signature : E94D80A8
->Accurately ripped (v2, confidence 1/1)
Statistics
Read error : 0
Jitter error (maybe fixed) : 0
Retry sector count : 0
Damaged sector count : 0
Track 07
Filename : /Users/anch/Music/FLAC/London Improvisers Orchestra - 2010 - Lio Leo Leon [MP3 320]/07 - After Numbers.mp3
/Users/anch/Music/FLAC/London Improvisers Orchestra - 2010 - Lio Leo Leon [MP3 V0]/07 - After Numbers.mp3
/Users/anch/Music/FLAC/London Improvisers Orchestra - 2010 - Lio Leo Leon [FLAC]/07 - After Numbers.flac
Track gain : -3.88 dB
Peak : 0.929810
CRC32 hash (test run) : B794CD00
CRC32 hash : B794CD00
CRC32 hash (skip zero) : 47C61856
AccurateRip v1 signature : 837FF7C4
AccurateRip v2 signature : 1F43659C
->Accurately ripped (v2, confidence 1/1)
Statistics
Read error : 0
Jitter error (maybe fixed) : 0
Retry sector count : 0
Damaged sector count : 0
Track 08
Filename : /Users/anch/Music/FLAC/London Improvisers Orchestra - 2010 - Lio Leo Leon [MP3 320]/08 - Concerto For Ishmael Wadada Leo Smith & Orchestra.mp3
/Users/anch/Music/FLAC/London Improvisers Orchestra - 2010 - Lio Leo Leon [MP3 V0]/08 - Concerto For Ishmael Wadada Leo Smith & Orchestra.mp3
/Users/anch/Music/FLAC/London Improvisers Orchestra - 2010 - Lio Leo Leon [FLAC]/08 - Concerto For Ishmael Wadada Leo Smith & Orchestra.flac
Track gain : -5.91 dB
Peak : 0.999969
CRC32 hash (test run) : 0440D745
CRC32 hash : 0440D745
CRC32 hash (skip zero) : F9627606
AccurateRip v1 signature : 9B96998F
AccurateRip v2 signature : 3F8483C3
->Accurately ripped (v2, confidence 1/1)
Statistics
Read error : 0
Jitter error (maybe fixed) : 0
Retry sector count : 0
Damaged sector count : 0
No errors occurred
End of status report
 
.cue
TITLE "Lio Leo Leon"
PERFORMER "London Improvisers Orchestra"
REM GENRE "Jazz / Avant-Garde"
REM DATE "2010"
REM DISCID 7410F208
REM REPLAYGAIN_ALBUM_GAIN -4.62 dB
REM REPLAYGAIN_ALBUM_PEAK 0.999969
FILE "01 - Before Tapping.flac" WAVE
TRACK 01 AUDIO
TITLE "Before Tapping"
PERFORMER "London Improvisers Orchestra"
ISRC GBGKV1180401
REM REPLAYGAIN_TRACK_GAIN -3.74 dB
REM REPLAYGAIN_TRACK_PEAK 0.999939
INDEX 01 00:00:00
FILE "02 - Wiretapping.flac" WAVE
TRACK 02 AUDIO
TITLE "Wiretapping"
PERFORMER "London Improvisers Orchestra"
ISRC GBGKV1180402
REM REPLAYGAIN_TRACK_GAIN -4.03 dB
REM REPLAYGAIN_TRACK_PEAK 0.978027
INDEX 01 00:00:00
FILE "03 - After Tapping.flac" WAVE
TRACK 03 AUDIO
TITLE "After Tapping"
PERFORMER "London Improvisers Orchestra"
ISRC GBGKV1180403
REM REPLAYGAIN_TRACK_GAIN -3.90 dB
REM REPLAYGAIN_TRACK_PEAK 0.965393
INDEX 01 00:00:00
FILE "04 - Concerto For Soft-Loud Key-Box No. 2.flac" WAVE
TRACK 04 AUDIO
TITLE "Concerto For Soft-Loud Key-Box No. 2"
PERFORMER "London Improvisers Orchestra"
ISRC GBGKV1180404
REM REPLAYGAIN_TRACK_GAIN -4.59 dB
REM REPLAYGAIN_TRACK_PEAK 0.987946
INDEX 01 00:00:00
FILE "05 - Inhale Exhale.flac" WAVE
TRACK 05 AUDIO
TITLE "Inhale Exhale"
PERFORMER "London Improvisers Orchestra"
ISRC GBGKV1180405
REM REPLAYGAIN_TRACK_GAIN -5.00 dB
REM REPLAYGAIN_TRACK_PEAK 0.999725
INDEX 01 00:00:00
FILE "06 - Numbers Listening.flac" WAVE
TRACK 06 AUDIO
TITLE "Numbers Listening"
PERFORMER "London Improvisers Orchestra"
ISRC GBGKV1180406
REM REPLAYGAIN_TRACK_GAIN 8.31 dB
REM REPLAYGAIN_TRACK_PEAK 0.516266
INDEX 01 00:00:00
FILE "07 - After Numbers.flac" WAVE
TRACK 07 AUDIO
TITLE "After Numbers"
PERFORMER "London Improvisers Orchestra"
ISRC GBGKV1180407
REM REPLAYGAIN_TRACK_GAIN -3.88 dB
REM REPLAYGAIN_TRACK_PEAK 0.929810
INDEX 01 00:00:00
FILE "08 - Concerto For Ishmael Wadada Leo Smith & Orchestra.flac" WAVE
TRACK 08 AUDIO
TITLE "Concerto For Ishmael Wadada Leo Smith & Orchestra"
PERFORMER "London Improvisers Orchestra"
ISRC GBGKV1180409
REM REPLAYGAIN_TRACK_GAIN -5.91 dB
REM REPLAYGAIN_TRACK_PEAK 0.999969
INDEX 01 00:00:00
 
.accurip
[CUETools log; Date: 15/04/14 13:28:09; Version: 2.1.4]
[CTDB TOCID: LTem6NOTU5L8KftdTE.5ecCBijs-] disk not present in database.
[AccurateRip ID: 00167035-00951130-7410f208] found.
Track [ CRC | V2 ] Status
01 [c069e99f|be3868d3] (0+2/2) Accurately ripped
02 [83d0b7b5|5dd8b402] (0+2/2) Accurately ripped
03 [6b7e9e38|867fca7a] (0+2/2) Accurately ripped
04 [340d8752|eb1e90be] (0+2/2) Accurately ripped
05 [e8f0d5df|c6092b0a] (0+2/2) Accurately ripped
06 [6088286a|e94d80a8] (0+2/2) Accurately ripped
07 [837ff7c4|1f43659c] (0+2/2) Accurately ripped
08 [9b96998f|3f8483c3] (0+2/2) Accurately ripped
Track Peak [ CRC32 ] [W/O NULL]
-- 100.0 [22409302] [AD1146A6]
01 99.9 [B3F6168B] [D311B9FE]
02 97.8 [98835C2D] [89BF7100]
03 96.5 [3BF0A7EE] [96244CE8]
04 98.7 [83401672] [592E5BBD]
05 99.9 [59AE0670] [58FDEF80]
06 51.6 [04F4F996] [F498F721]
07 92.9 [B794CD00] [47C61856]
08 100.0 [0440D745] [F9627606]

другие релизы
По всем вопросам пишите личное сообщение пользователю M0p94ok.
01:09
129
Нет комментариев. Ваш будет первым!