Поиск

(Avant-Garde Jazz, Free Improvisation) [CD] Joe Morris Trio (Nate McBride, Jerome Deupree) - Antennae - 1997, FLAC (image+.cue), lossless

(Avant-Garde Jazz, Free Improvisation) [CD] Joe Morris Trio (Nate McBride, Jerome Deupree) - Antennae - 1997, FLAC (image+.cue), lossless
Joe Morris Trio / Antennae
Жанр: Avant-Garde Jazz, Free Improvisation
Носитель: CD
Страна-производитель диска: US
Год издания: 1997
Издатель (лейбл): AUM Fidelity
Номер по каталогу: AUM004
Аудиокодек: FLAC (*.flac)
Тип рипа: image+.cue
Битрейт аудио: lossless
Продолжительность: 74:01
Источник (релизер): CD
Наличие сканов в содержимом раздачи: нет
Треклист:
1 Synapse 8:17
2 Antennae 13:21
3 Silent Treatment 7:35
4 Stare Into A Lightbulb For Three Years 13:30
5 Human Pyramid 9:22
6 Elevator 15:09
7 Virtual Whatever 6:45
 
Лог создания рипа
Exact Audio Copy V1.0 beta 2 from 29. April 2011
EAC extraction logfile from 14. April 2014, 11:38
Joe Morris Trio / Antennae
Used drive : Optiarc DVD RW AD-7170A Adapter: 0 ID: 0
Read mode : Secure
Utilize accurate stream : Yes
Defeat audio cache : Yes
Make use of C2 pointers : No
Read offset correction : 48
Overread into Lead-In and Lead-Out : No
Fill up missing offset samples with silence : Yes
Delete leading and trailing silent blocks : No
Null samples used in CRC calculations : Yes
Used interface : Native Win32 interface for Win NT & 2000
Used output format : User Defined Encoder
Selected bitrate : 320 kBit/s
Quality : High
Add ID3 tag : No
Command line compressor : C:\Program Files\Exact Audio Copy\Flac\flac.exe
Additional command line options : -V -8 -T "Date=%year%" -T "Genre=%genre%" %source%
TOC of the extracted CD
Track | Start | Length | Start sector | End sector
---------------------------------------------------------
1 | 0:00.00 | 8:16.62 | 0 | 37261
2 | 8:16.62 | 13:22.70 | 37262 | 97481
3 | 21:39.57 | 7:34.40 | 97482 | 131571
4 | 29:14.22 | 13:30.65 | 131572 | 192386
5 | 42:45.12 | 9:20.55 | 192387 | 234441
6 | 52:05.67 | 15:11.20 | 234442 | 302786
7 | 67:17.12 | 6:44.38 | 302787 | 333124
Range status and errors
Selected range
Filename K:\ЕАС\Joe Morris Trio - Antennae.wav
Peak level 95.2 %
Extraction speed 2.2 X
Range quality 99.9 %
Test CRC 7F31FF45
Copy CRC 7F31FF45
Copy OK
No errors occurred
AccurateRip summary
Track 1 accurately ripped (confidence 4) [FA9480A0] (AR v1)
Track 2 accurately ripped (confidence 4) [A0A95871] (AR v1)
Track 3 accurately ripped (confidence 4) [4064A768] (AR v1)
Track 4 accurately ripped (confidence 4) [20D2B6AC] (AR v1)
Track 5 accurately ripped (confidence 4) [BBF688A2] (AR v1)
Track 6 accurately ripped (confidence 4) [EAD4405F] (AR v1)
Track 7 accurately ripped (confidence 4) [B0EB6F58] (AR v1)
All tracks accurately ripped
End of status report
==== Log checksum 344DABFA12859C2B925E8A7EA85407CE9F3EEB31594B6A809E44A1832DDAB519 ====
 
Содержание индексной карты (.CUE)
REM GENRE Jazz
REM DATE 1997
REM DISCID 60115907
REM COMMENT "ExactAudioCopy v1.0b2"
CATALOG 0000000000000
PERFORMER "Joe Morris Trio"
TITLE "Antennae"
FILE "Joe Morris Trio - Antennae.flac" WAVE
TRACK 01 AUDIO
TITLE "Synapse"
PERFORMER "Joe Morris Trio"
ISRC 000000000000
INDEX 01 00:00:00
TRACK 02 AUDIO
TITLE "Antennae"
PERFORMER "Joe Morris Trio"
ISRC 000000000000
INDEX 00 08:15:25
INDEX 01 08:16:62
TRACK 03 AUDIO
TITLE "Silent Treatment"
PERFORMER "Joe Morris Trio"
ISRC 000000000000
INDEX 00 21:36:50
INDEX 01 21:39:57
TRACK 04 AUDIO
TITLE "Stare Into A Lightbulb For Three Years"
PERFORMER "Joe Morris Trio"
ISRC 000000000000
INDEX 00 29:12:37
INDEX 01 29:14:22
TRACK 05 AUDIO
TITLE "Human Pyramid"
PERFORMER "Joe Morris Trio"
ISRC 000000000000
INDEX 00 42:43:12
INDEX 01 42:45:12
TRACK 06 AUDIO
TITLE "Elevator"
PERFORMER "Joe Morris Trio"
ISRC 000000000000
INDEX 01 52:05:67
TRACK 07 AUDIO
TITLE "Virtual Whatever"
PERFORMER "Joe Morris Trio"
ISRC 000000000000
INDEX 00 67:15:55
INDEX 01 67:17:12
Доп. информация: Recorded at The Outpost, Stoughton, MA on 5-6 July 1997.
 
Об альбоме (сборнике)
Joe Morris continues to hone his impressive guitar style on the Trio outing Antennae; a precise, economical player, his phrasing is articulate, his sound clean and distinctive.
 
Состав
Bass – Nate McBride
Drums – Jerome Deupree
Guitar, Producer – Joe Morris
01:09
242
Нет комментариев. Ваш будет первым!