Вы используете незарегистрированную версию компонента "Вкладки"!

Поиск

(Free Jazz, Indian Classical, Contemporary Jazz, Modal) [CD] The Core - The Indian Core {Grappa GRCD 4254, Norway} - 2007, FLAC (tracks+.cue), lossless

(Free Jazz, Indian Classical, Contemporary Jazz, Modal) [CD] The Core - The Indian Core {Grappa GRCD 4254, Norway} - 2007, FLAC (tracks+.cue), lossless
Треклист:
The Core / The Indian Core
Жанр: Free Jazz, Indian Classical, Contemporary Jazz, Modal
Носитель: CD
Страна-производитель диска (релиза): Norway
Год издания: 2007
Издатель (лейбл): Grappa
Номер по каталогу: GRCD 4254
Страна исполнителя (группы): Norway, India
Аудиокодек: FLAC (*.flac)
Тип рипа: tracks+.cue
Битрейт аудио: lossless
Продолжительность: 01:04:51
Источник (релизер): вата (ColorCoded)
Наличие сканов в содержимом раздачи: да (из сети) + smaller sized covers from Discogs
Треклист:
1. Slo'Fox (Written-By – Espen Aalberg) 10:14
2. Punjab Blues (Written-By – Espen Aalberg) 7:47
3. Autumn (Written-By – Fateh Ali) 8:57
4. Ull-Raga (Written-By – Steinar Raknes) 12:56
5. Agra (Written-By – Espen Aalberg) 11:22
6. Tarana (Written-By – Fateh Ali) 13:34
All music recorded live in Olavshallen, Trondheim 11 nov 2006, except track 4, recorded in Drammens Teater, Drammen 8 nov 2006.
Recorded By – Anders Aasebøe
Produced By – The Core and Reidar Skaar
Also issued on Mystica Music ‎- ACN - 08007, Grappa ‎– GRCD 4254 (India, 2008)
 
Лог создания рипа (EAC Log)
Exact Audio Copy V1.0 beta 2 from 29. April 2011
EAC extraction logfile from 5. September 2011, 17:53
The Core / The Indian Core
Used drive : PIONEER BD-ROM BDC-TD03 Adapter: 0 ID: 1
Read mode : Secure
Utilize accurate stream : Yes
Defeat audio cache : Yes
Make use of C2 pointers : No
Read offset correction : 667
Overread into Lead-In and Lead-Out : No
Fill up missing offset samples with silence : Yes
Delete leading and trailing silent blocks : No
Null samples used in CRC calculations : No
Used interface : Native Win32 interface for Win NT & 2000
Gap handling : Appended to previous track
Used output format : User Defined Encoder
Selected bitrate : 1024 kBit/s
Quality : High
Add ID3 tag : No
Command line compressor : C:\Program Files (x86)\Exact Audio Copy\FLAC\FLAC.EXE
Additional command line options : -8 -V -T "ARTIST=%artist%" -T "TITLE=%title%" -T "ALBUM=%albumtitle%" -T "DATE=%year%" -T "TRACKNUMBER=%tracknr%" -T "GENRE=%genre%" -T "PERFORMER=%albuminterpret%" -T "COMPOSER=%composer%" %haslyrics%--tag-from-file=LYRICS
TOC of the extracted CD
Track | Start | Length | Start sector | End sector
---------------------------------------------------------
1 | 0:00.00 | 10:16.24 | 0 | 46223
2 | 10:16.24 | 7:49.06 | 46224 | 81404
3 | 18:05.30 | 8:59.48 | 81405 | 121877
4 | 27:05.03 | 12:58.30 | 121878 | 180257
5 | 40:03.33 | 11:24.27 | 180258 | 231584
6 | 51:27.60 | 13:34.08 | 231585 | 292642
Track 1
Filename C:\EAC Rips\The Core - The Indian Core (2007) [FLAC]\01 -Slo Fox.wav
Pre-gap length 0:00:02.00
Peak level 96.6 %
Extraction speed 3.5 X
Track quality 100.0 %
Test CRC 00AAE072
Copy CRC 00AAE072
Copy OK
Track 2
Filename C:\EAC Rips\The Core - The Indian Core (2007) [FLAC]\02 -Punjab Blues.wav
Pre-gap length 0:00:02.00
Peak level 96.6 %
Extraction speed 3.8 X
Track quality 99.9 %
Test CRC 9BCE324D
Copy CRC 9BCE324D
Copy OK
Track 3
Filename C:\EAC Rips\The Core - The Indian Core (2007) [FLAC]\03 -Autumn.wav
Pre-gap length 0:00:02.00
Peak level 96.5 %
Extraction speed 4.6 X
Track quality 100.0 %
Test CRC 26C022FE
Copy CRC 26C022FE
Copy OK
Track 4
Filename C:\EAC Rips\The Core - The Indian Core (2007) [FLAC]\04 -Ull-Raga.wav
Pre-gap length 0:00:02.00
Peak level 96.6 %
Extraction speed 5.2 X
Track quality 100.0 %
Test CRC 28F18064
Copy CRC 28F18064
Copy OK
Track 5
Filename C:\EAC Rips\The Core - The Indian Core (2007) [FLAC]\05 -Agra.wav
Pre-gap length 0:00:02.00
Peak level 96.6 %
Extraction speed 5.7 X
Track quality 100.0 %
Test CRC A51E9630
Copy CRC A51E9630
Copy OK
Track 6
Filename C:\EAC Rips\The Core - The Indian Core (2007) [FLAC]\06 -Tarana.wav
Pre-gap length 0:00:02.00
Peak level 96.6 %
Extraction speed 6.0 X
Track quality 99.9 %
Test CRC EC030C01
Copy CRC EC030C01
Copy OK
No errors occurred
End of status report
==== Log checksum E7F03773E08CACA19FCD361BC18B3B7361CCAC906493C9A47217E21C65D9B17A ====
------------------------------------------------------------
Exact Audio Copy V1.0 beta 2 from 29. April 2011
EAC extraction logfile from 5. September 2011, 17:53
The Core / The Indian Core
Used drive : PIONEER BD-ROM BDC-TD03 Adapter: 0 ID: 1
Read mode : Secure
Utilize accurate stream : Yes
Defeat audio cache : Yes
Make use of C2 pointers : No
Read offset correction : 667
Overread into Lead-In and Lead-Out : No
Fill up missing offset samples with silence : Yes
Delete leading and trailing silent blocks : No
Null samples used in CRC calculations : No
Used interface : Native Win32 interface for Win NT & 2000
Gap handling : Appended to previous track
Used output format : User Defined Encoder
Selected bitrate : 1024 kBit/s
Quality : High
Add ID3 tag : No
Command line compressor : C:\Program Files (x86)\Exact Audio Copy\FLAC\FLAC.EXE
Additional command line options : -8 -V -T "ARTIST=%artist%" -T "TITLE=%title%" -T "ALBUM=%albumtitle%" -T "DATE=%year%" -T "TRACKNUMBER=%tracknr%" -T "GENRE=%genre%" -T "PERFORMER=%albuminterpret%" -T "COMPOSER=%composer%" %haslyrics%--tag-from-file=LYRICS
TOC of the extracted CD
Track | Start | Length | Start sector | End sector
---------------------------------------------------------
1 | 0:00.00 | 10:16.24 | 0 | 46223
2 | 10:16.24 | 7:49.06 | 46224 | 81404
3 | 18:05.30 | 8:59.48 | 81405 | 121877
4 | 27:05.03 | 12:58.30 | 121878 | 180257
5 | 40:03.33 | 11:24.27 | 180258 | 231584
6 | 51:27.60 | 13:34.08 | 231585 | 292642
Track 1
Filename C:\EAC Rips\The Core - The Indian Core (2007) [FLAC]\01 -Slo Fox.wav
Pre-gap length 0:00:02.00
Peak level 96.6 %
Extraction speed 3.5 X
Track quality 100.0 %
Test CRC 00AAE072
Copy CRC 00AAE072
Copy OK
Track 2
Filename C:\EAC Rips\The Core - The Indian Core (2007) [FLAC]\02 -Punjab Blues.wav
Pre-gap length 0:00:02.00
Peak level 96.6 %
Extraction speed 3.8 X
Track quality 99.9 %
Test CRC 9BCE324D
Copy CRC 9BCE324D
Copy OK
Track 3
Filename C:\EAC Rips\The Core - The Indian Core (2007) [FLAC]\03 -Autumn.wav
Pre-gap length 0:00:02.00
Peak level 96.5 %
Extraction speed 4.6 X
Track quality 100.0 %
Test CRC 26C022FE
Copy CRC 26C022FE
Copy OK
Track 4
Filename C:\EAC Rips\The Core - The Indian Core (2007) [FLAC]\04 -Ull-Raga.wav
Pre-gap length 0:00:02.00
Peak level 96.6 %
Extraction speed 5.2 X
Track quality 100.0 %
Test CRC 28F18064
Copy CRC 28F18064
Copy OK
Track 5
Filename C:\EAC Rips\The Core - The Indian Core (2007) [FLAC]\05 -Agra.wav
Pre-gap length 0:00:02.00
Peak level 96.6 %
Extraction speed 5.7 X
Track quality 100.0 %
Test CRC A51E9630
Copy CRC A51E9630
Copy OK
Track 6
Filename C:\EAC Rips\The Core - The Indian Core (2007) [FLAC]\06 -Tarana.wav
Pre-gap length 0:00:02.00
Peak level 96.6 %
Extraction speed 6.0 X
Track quality 99.9 %
Test CRC EC030C01
Copy CRC EC030C01
Copy OK
No errors occurred
End of status report
==== Log checksum E7F03773E08CACA19FCD361BC18B3B7361CCAC906493C9A47217E21C65D9B17A ====
 
Содержание индексной карты (.CUE)
REM GENRE "New Age, Jazz"
REM DATE 2008
REM DISCID 500F3D06
REM COMMENT "ExactAudioCopy v1.0b2"
PERFORMER "The Core"
TITLE "The Indian Core"
FILE "01 -Slo Fox.wav" WAVE
TRACK 01 AUDIO
TITLE "Slo Fox"
PERFORMER "The Core"
ISRC INM210801013
FLAGS DCP
INDEX 01 00:00:00
TRACK 02 AUDIO
TITLE "Punjab Blues"
PERFORMER "The Core"
ISRC INM210801014
FLAGS DCP
INDEX 00 10:14:24
FILE "02 -Punjab Blues.wav" WAVE
INDEX 01 00:00:00
TRACK 03 AUDIO
TITLE "Autumn"
PERFORMER "The Core"
ISRC INM210801015
FLAGS DCP
INDEX 00 07:47:06
FILE "03 -Autumn.wav" WAVE
INDEX 01 00:00:00
TRACK 04 AUDIO
TITLE "Ull-Raga"
PERFORMER "The Core"
ISRC INM210801016
FLAGS DCP
INDEX 00 08:57:48
FILE "04 -Ull-Raga.wav" WAVE
INDEX 01 00:00:00
TRACK 05 AUDIO
TITLE "Agra"
PERFORMER "The Core"
ISRC INM210801017
FLAGS DCP
INDEX 00 12:56:30
FILE "05 -Agra.wav" WAVE
INDEX 01 00:00:00
TRACK 06 AUDIO
TITLE "Tarana"
PERFORMER "The Core"
ISRC INM210801018
FLAGS DCP
INDEX 00 11:22:27
FILE "06 -Tarana.wav" WAVE
INDEX 01 00:00:00
Доп. информация:
 
Об исполнителе (группе)
The Core is one of Norway’s most energetic jazz bands, performing music influenced by John Coltrane’s post-bop and the free quartets of the late ’60s. Their high-energy live performances are the foundations upon which the band has built an international reputation, and critics have been raving about the group’s shows and albums since its founding nearly a decade ago.
Myspace: https://myspace.com/thecorenorway
----
The Core: (band)
The Core, one of Norway's most hi-octane jazz bands, come to Jazzland. They have played all the major jazz festivals in the country, and have been lauded for their combination of energetic attack and high quality skills. The music is rooted in the acoustic modal jazz of the 60s, combined with more contemporary grooves grown from funk and rock. The music also is generous, inviting the listener be part of a high-energy journey. And it can be beautiful and sober. This diverse sonic scope, combined with extraordinary stage skills, makes The Core something really special on thethe contemporary jazzscene.
A quote from a review of one of their concerts in Oslo, in October 2004, gives a good description of what to expect from this group, who made their first public performance in 2001: "The Core has everything that jazz in 2004 should have: Energy, generosity and an unstoppable youthfulness giving the impression that each concert could be the last." Office Essentials
The members of The Core comprise some of Norway's new leading jazz artists. The Core started in 1999 at the jazz academy in Trondheim, Norway. Here the quartet, consisting of Steinar Raknes on double bass, saxplayer Kjetil Møster, pianist Erlend Slettevoll and composer and drummer Espen Aalberg, musically fell in love. Having released three raved-about albums to date, they now arrive with their fourth, Office Essentials, at Jazzland.
Source: http://www.gubemusic.com/artist_40
----
The Core: (band)
From Wikipedia, the free encyclopedia
The Core (established 1999 in Trondheim, Norway) is a Norwegian Jazz band, known from a series of recordings. It was initiated by the drummer Espen Aalberg, and are performing music in the Coltrane/Shorter tradition.
Their musical expression are rooted in African-American music, with a touch of funk and rock. After releasing the album Vision (2004), with music inspired by Pharoah Sanders, Archie Shepp, Albert Ayler and John Coltrane, they followed up with Blue sky (2006), with music composed by Steinar Raknes and Espen Aalberg, and some guitar contributions by Nils-Olav Johansen.
The Core has made their presence at most of the Norwegian Jazz festivals, where they have been joined by a number of guest soloists, such as James Carter, Jonas Kullhammar, Per Johansson and Håkon Kornstad. They were also broadcast on EBU at Tampere (2004). On request from the Norwegian Rikskonsertene and Utenriksdepartementet, they toured India, Pakistan and Bangladesh in 2005. This project was later presented to a Norwegian audience through a cultural exchange tour organized by Rikskonsertene a year later. Participants on both tours were the Indian musicians Fateh Ali (sitar and vocals), Prasanjit Mitra (tablas) and Kanchman Babbar (flute), and released on thealbum The Indian Core (2007).
Discography:
2004: Vision (Jazzaway Records)
2006: Blue Sky (Jazzaway Records)
2007: Office Essentials (Jazzland Recordings)
2007: Meditations On Coltrane (Grappa), with Bergen Big Band
2007: The Indian Core (Grappa Music)
2008: Golonka Love (Moserobie Music)
2009: The art of no return (Moserobie Music)
2010: Party (Moserobie Music)
Source: http://en.wikipedia.org/wiki/The_Core_%28band%29
 
Об альбоме (сборнике)
from Mystica Music:
On this new recording the critically acclaimed Norwegian contemporary jazz group The Core has joined forces with renowned traditional Indian music performers. The collaboration grew out of a tour of India, Pakistan and Bangladesh by The Core in 2006 , where the found three musical soul mates in the Indian performers Prasenjit Mitra, Kanchman Babbar and Fateh Ali. The desire to play together seemed completely natural as both sets of musicians have a common point of departure in their own folk music and to a large extent utilise improvisation.
The Core consists of five young musicians who met through their dedication to 1960s. Last autumn they were sent to India by the Norwegian Ministry of Foreign Affairs to create a commissioned work together with Prasenjit Mitra, Kanchman Babbar and Fateh Ali. In the course of a week's work they had created sufficient material for an extensive tour of Norway which took place in November 2006. According to the critics this tour was an experience above and beyond the ordinary, a beautiful interaction between saxophone, flute and sitar, and double bass, piano and tablas. The climax was the recording session for this CD which captures the magic of the musical collaboration between East and West with its mix of contemporary jazz and traditional Indian music.
All About Jazz:
In November 2005, The Core toured India, Pakistan and Bangladesh with three prominent Indian players—Fateh Ali on sitar, Kanchman Babbar on bamboo flute, bansuri, and Prasenjit Mitra on tabla. All three are well-versed in classical Indian music. A year later, the three Indian players arrived to Norway for a second tour.
The Indian Core, as this new collaboration was called, opened the Oslo World Music Festival, but this live recording is taken from smaller venues in Trondheim and in Drammem. The collaboration presented new opportunities to The Core's already vast musical vocabulary.
The Core members follow carefully and expand on Babbar's gentle flute lead on the opening piece, "Sol's Fox," and only Møster dares to push it into wilder plains. But on "Punjab Blues" all are ready to take the fast lane; Aalberg and Mitra lay down a driving polyrhythmic basis for Møster and Babbar to alternate fast solos on the soprano saxophone and on the flute, each following the snake lines of the other. "Autumn" begins with Ali delivering a beautiful, meditative sitar solo, and slowly Babbar and Mitra join and repeat the melody. Raknes later joins Ali for a duet passage.
Raknes leads "All Raga" with a simple bass chorus, Babbar joins him with deep flute timbres—that sound like they're paying dues to Use Lateen as much as they do to the Indian tradition—and both of them welcome the other players, who extend the melody with brief solos.
"Agra" is a vehicle for The Core to display its impressive group interplay. Walberg dictates a fast rhythm for Møster and Slettovell's solos, after which Mitra plays a tabla solo that ornaments Walberg's rhythmic ideas with the Indian percussion vocabulary. Ali states the optimistic Indian-tinged theme of the closing "Tirana." Aalberg adds resonating colors with his cymbals, Raknes adds a swinging rhythmic frame, and than Babbar and Møster join with inspired solos.
A beautiful meeting of East and West.
 
Personnel & Credits
Personnel:
Kjetil Møster - Saxophones
Erlend Slettevoll - Piano
Steinar Raknes - Bass
Espen Aalberg - Drums
Kanchman Babbar - Flutes
Fateh Ali - Sitar
Prasenjit Mitra - Tabla
Credits:
Artwork – Tundragroup
Mixed By, Mastered By – Reidar Skaar
Producer – The Core, Reidar Skaar
Recorded By – Anders Aasebøe
 
Photo, YouTube ...
https://www.youtube.com/watch?v=fTioSMeLIXo
The Indian Core - Ull-Raga - Live at Dokkhuset - Part 1
https://www.youtube.com/watch?v=NibtzIFl48E
The Indian Core - Ull-Raga - Live at Dokkhuset - Part 2
https://www.youtube.com/watch?v=PScyEW1FH1A
The Indian Core - Too much handsome - Live at Dokkhuset
https://www.youtube.com/watch?v=SfW1b77eA0M
Jazz: "Tarana" by The Indian Core - Part 1
https://www.youtube.com/watch?v=nWeqwfN-XsI
Jazz: "Tarana" by The Indian Core - Part 2
https://www.youtube.com/watch?v=Xd5ovrPDeAs
Jazz: "Ull-Raga" by The Indian Core


По всем вопросам пишите личное сообщение пользователю M0p94ok.
07:30
181
Нет комментариев. Ваш будет первым!