Вы используете незарегистрированную версию компонента "Вкладки"!

Поиск

(Avant-Garde Jazz, Modern Composition, FMR) [CD] Delta Saxophone Quartet (Stephen Cottrell, Peter Whyman, Gareth Brady, Chris Caldwell) - Facing Death - 2002, FLAC (tracks+.cue), lossless

(Avant-Garde Jazz, Modern Composition, FMR) [CD] Delta Saxophone Quartet (Stephen Cottrell, Peter Whyman, Gareth Brady, Chris Caldwell) - Facing Death - 2002, FLAC (tracks+.cue), lossless
Треклист:
Delta Saxophone Quartet / Facing Death
Жанр: Avant-Garde Jazz, Modern Composition, FMR
Носитель: CD
Страна-производитель диска (релиза): UK
Год издания: 2002
Издатель (лейбл): FMR Records
Номер по каталогу: FMRCD104-C0502
Страна исполнителя (группы): UK
Аудиокодек: FLAC (*.flac)
Тип рипа: tracks+.cue
Битрейт аудио: lossless
Продолжительность: 52:10
Источник (релизер): свой фирменный диск
Наличие сканов в содержимом раздачи:
Треклист:
1. Stub 9:21
2. Acordecon De Roto Corazon 6:18
3. Facing Death 18:43
4. Concurrent Air 7:02
Circle Square
5. Movement I 3:08
6. Movement II 4:06
7. Movement III 2:53
 
Лог создания рипа
Exact Audio Copy V1.0 beta 3 from 29. August 2011
EAC extraction logfile from 9. November 2014, 17:21
Delta Saxophone Quartet / Facing Death
Used drive : PIONEER DVD-RW DVR-115D Adapter: 0 ID: 0
Read mode : Secure
Utilize accurate stream : Yes
Defeat audio cache : Yes
Make use of C2 pointers : No
Read offset correction : 48
Overread into Lead-In and Lead-Out : No
Fill up missing offset samples with silence : Yes
Delete leading and trailing silent blocks : No
Null samples used in CRC calculations : Yes
Used interface : Installed external ASPI interface
Gap handling : Appended to previous track
Used output format : User Defined Encoder
Selected bitrate : 768 kBit/s
Quality : High
Add ID3 tag : No
Command line compressor : C:\Program Files\Exact Audio Copy\Flac\flac.exe
Additional command line options : -6 -V -T "ARTIST=%artist%" -T "TITLE=%title%" -T "ALBUM=%albumtitle%" -T "DATE=%year%" -T "TRACKNUMBER=%tracknr%" -T "GENRE=%genre%" -T "COMMENT=%comment%" -T "BAND=%albuminterpret%" -T "COMPOSER=%composer%" %haslyrics%--tag-from-file=LYRICS="%lyricsfile%"%haslyrics% -T "DISCNUMBER=%cdnumber%" -T "TOTALDISCS=%totalcds%" -T "TOTALTRACKS=%numtracks%" %hascover%--picture="%coverfile%"%hascover% %source% -o %dest%
TOC of the extracted CD
Track | Start | Length | Start sector | End sector
---------------------------------------------------------
1 | 0:00.00 | 9:29.50 | 0 | 42724
2 | 9:29.50 | 6:22.53 | 42725 | 71427
3 | 15:52.28 | 18:54.14 | 71428 | 156491
4 | 34:46.42 | 7:11.41 | 156492 | 188857
5 | 41:58.08 | 3:08.02 | 188858 | 202959
6 | 45:06.10 | 4:06.62 | 202960 | 221471
7 | 49:12.72 | 2:57.38 | 221472 | 234784
Track 1
Filename D:\zzz\01 - Stub.wav
Pre-gap length 0:00:02.00
Peak level 93.6 %
Extraction speed 4.9 X
Track quality 100.0 %
Test CRC 5A98F2A1
Copy CRC 5A98F2A1
Track not present in AccurateRip database
Copy OK
Track 2
Filename D:\zzz\02 - Acordecon De Roto Corazon.wav
Pre-gap length 0:00:05.38
Peak level 81.2 %
Extraction speed 5.6 X
Track quality 100.0 %
Test CRC 66A5CFB8
Copy CRC 66A5CFB8
Track not present in AccurateRip database
Copy OK
Track 3
Filename D:\zzz\03 - Facing Death.wav
Pre-gap length 0:00:05.66
Peak level 77.4 %
Extraction speed 7.0 X
Track quality 100.0 %
Test CRC 38D09246
Copy CRC 38D09246
Track not present in AccurateRip database
Copy OK
Track 4
Filename D:\zzz\04 - Concurrent Air.wav
Pre-gap length 0:00:07.63
Peak level 42.8 %
Extraction speed 7.6 X
Track quality 100.0 %
Test CRC 31DB4E89
Copy CRC 31DB4E89
Track not present in AccurateRip database
Copy OK
Track 5
Filename D:\zzz\05 - Circle Square Movement I.wav
Pre-gap length 0:00:05.26
Peak level 85.6 %
Extraction speed 7.1 X
Track quality 100.0 %
Test CRC 4C67D756
Copy CRC 4C67D756
Track not present in AccurateRip database
Copy OK
Track 6
Filename D:\zzz\06 - Circle Square Movement II.wav
Peak level 57.2 %
Extraction speed 7.6 X
Track quality 100.0 %
Test CRC 83395D5D
Copy CRC 83395D5D
Track not present in AccurateRip database
Copy OK
Track 7
Filename D:\zzz\07 - Circle Square Movement III.wav
Peak level 85.8 %
Extraction speed 7.4 X
Track quality 100.0 %
Test CRC B290A9F7
Copy CRC B290A9F7
Track not present in AccurateRip database
Copy OK
None of the tracks are present in the AccurateRip database
No errors occurred
End of status report
==== Log checksum 80D93069F652835D6331D335C12A35DEF04DCE906A12ADB87C702DE4DB8B4FF1 ====
 
Содержание индексной карты (.CUE)
REM GENRE "Modern Composition"
REM DATE 2002
REM DISCID 610C3A07
REM COMMENT "ExactAudioCopy v1.0b3"
PERFORMER "Delta Saxophone Quartet"
TITLE "Facing Death"
FILE "01 - Stub.wav" WAVE
TRACK 01 AUDIO
TITLE "Stub"
PERFORMER "Delta Saxophone Quartet"
INDEX 01 00:00:00
TRACK 02 AUDIO
TITLE "Acordecon De Roto Corazon"
PERFORMER "Delta Saxophone Quartet"
INDEX 00 09:24:12
FILE "02 - Acordecon De Roto Corazon.wav" WAVE
INDEX 01 00:00:00
TRACK 03 AUDIO
TITLE "Facing Death"
PERFORMER "Delta Saxophone Quartet"
INDEX 00 06:16:62
FILE "03 - Facing Death.wav" WAVE
INDEX 01 00:00:00
TRACK 04 AUDIO
TITLE "Concurrent Air"
PERFORMER "Delta Saxophone Quartet"
INDEX 00 18:46:26
FILE "04 - Concurrent Air.wav" WAVE
INDEX 01 00:00:00
TRACK 05 AUDIO
TITLE "Circle Square Movement I"
PERFORMER "Delta Saxophone Quartet"
INDEX 00 07:06:15
FILE "05 - Circle Square Movement I.wav" WAVE
INDEX 01 00:00:00
FILE "06 - Circle Square Movement II.wav" WAVE
TRACK 06 AUDIO
TITLE "Circle Square Movement II"
PERFORMER "Delta Saxophone Quartet"
INDEX 01 00:00:00
FILE "07 - Circle Square Movement III.wav" WAVE
TRACK 07 AUDIO
TITLE "Circle Square Movement III"
PERFORMER "Delta Saxophone Quartet"
INDEX 01 00:00:00
 
Лог проверки качества
d:\>d:\aucdtect -d/-m0 d:\zzz\*.wav
auCDtect: CD records authenticity detector, version 0.8.2
Copyright (c) 2004 Oleg Berngardt. All rights reserved.
Copyright (c) 2004 Alexander Djourik. All rights reserved.
------------------------------------------------------------
Processing file: [01. Stub.wav]
------------------------------------------------------------
This track looks like CDDA with probability 100%
------------------------------------------------------------
Processing file: [02. Acordecon De Roto Corazon.wav]
------------------------------------------------------------
This track looks like CDDA with probability 100%
------------------------------------------------------------
Processing file: [03. Facing Death.wav]
------------------------------------------------------------
This track looks like CDDA with probability 85%
------------------------------------------------------------
Processing file: [04. Concurrent Air.wav]
------------------------------------------------------------
Could not qualify the source of this track.
------------------------------------------------------------
Processing file: [05. Circle Square Movement I.wav]
------------------------------------------------------------
This track looks like CDDA with probability 100%
------------------------------------------------------------
Processing file: [06. Circle Square Movement II.wav]
------------------------------------------------------------
This track looks like MPEG with probability 93%
------------------------------------------------------------
Processing file: [07. Circle Square Movement III.wav]
------------------------------------------------------------
This track looks like CDDA with probability 100%
------------------------------------------------------------
Final Conclusion:
------------------------------------------------------------
These tracks looks like CDDA with probability 100%
Доп. информация:
 
Album Info & Review
(Graham Fitkin) - 1
(Javier Alvarez) - 2
(Louis Andriessen) - 3
(Chris Fox) - 4
(Joe Duddell) - 5,6,7
Produced by Simon Weir of the Classical Recording Company and recorded at Blackheath Concert Halls, London, February 2001.
Design & layout by Ewan Rigg
Produced for FMR Records by Trevor Taylor
Liner notes: Stephen Cottrell
A century ago, the saxophone was seen as a violin you could blow - only useful for playing the stringy bits in marching bands. Jazz soon changed that, but the evolution of the saxophone quartet has been slow compared with that of the string quartet. Facing Death (FMR), the new CD by the Delta Saxophone Quartet, is a good indicator of recent progress, thanks in large part to the Deltas' own efforts in commissioning and touring new repertoire.
The line-up - soprano, alto, tenor and baritone saxes - can be brash and loud without amplification. They can sound hushed and sensitive, too, but rarely cool and beautiful like a string ensemble. When the Deltas are in full flight, as on the rapid rhythmic figures of Graham Fitkin's Stub, you become aware of the mechanical nature of the saxophone's rods, levers, keys and pads, and the physical effort and precision required to tongue short, repeated notes.
At one point they sound like a wheezy old squeeze-box; Acordeon de Roto Corazon, by the underrated Javier Alvarez, takes the analogy further. Christopher Fox's Concurrent Air goes to another extreme: long, quiet, slow-moving parts wrap around each other, creating distant traces of Londonderry Air. But you never forget that the music is made by blowing: the physicality of the saxophone is what makes it exciting.
Louis Andriessen's Facing Death is based on a bunch of Charlie Parker tunes, quoted and worked into a tangle of quasi-minimal counterpoint, some of which is lifted from the De Stijl section of Andriessen's De Materie. The Deltas handle it brilliantly, adding enough insider knowledge to make the bebop phrases flow, but with an understanding of Andriessen's hard-edged style that resists any temptation to make the piece sweet or overly jazzy. This is a danger confronted daily by sax ensembles: facing death by syrup. - John L. Walters, The Guardian
 
Состав
Stephen Cottrell: soprano saxophone
Peter Whyman: alto saxophone
Gareth Brady: tenor saxophone
Chris Caldwell: baritone saxophone
По всем вопросам пишите личное сообщение пользователю M0p94ok.
07:29
147
Нет комментариев. Ваш будет первым!