Вы используете незарегистрированную версию компонента "Вкладки"!

Поиск

(Avant-Garde Jazz, Free Improvisation) [CD] Joe Hertenstein, Thomas Heberer, Joachim Badenhorst, Pascal Niggenkemper - Polylemma - 2011, FLAC (tracks+.cue), lossless

(Avant-Garde Jazz, Free Improvisation) [CD] Joe Hertenstein, Thomas Heberer, Joachim Badenhorst, Pascal Niggenkemper - Polylemma - 2011, FLAC (tracks+.cue), lossless
Треклист:
Joe Hertenstein, Thomas Heberer, Joachim Badenhorst, Pascal Niggenkemper / Polylemma
Жанр: Avant-Garde Jazz, Free Improvisation
Носитель: CD
Страна-производитель диска (релиза): Canada
Год издания: 2011
Издатель (лейбл): Red Toucan Records
Номер по каталогу: RT 9342
Страна исполнителя (группы): Germany, US
Аудиокодек: FLAC (*.flac)
Тип рипа: tracks+.cue
Битрейт аудио: lossless
Продолжительность: 45:55
Источник (релизер): свой фирменный диск
Наличие сканов в содержимом раздачи:
Треклист:
1. Polylemma 3:56
2. Garden 6:11
3. Sugar's Dilemma 5:16
4. Stratigraphy 6:12
5. One Ocean At A Time 6:02
6. Crespect 6:09
7. Banners n' Bubbles 8:07
8. Nupeez 3:59
 
Лог создания рипа
Exact Audio Copy V1.0 beta 3 from 29. August 2011
EAC extraction logfile from 27. September 2014, 16:17
Joe Hertenstein, Thomas Heberer, Joachim Badenhorst, Pascal Niggenkemper / Polylemma
Used drive : PIONEER DVD-RW DVR-115D Adapter: 0 ID: 0
Read mode : Secure
Utilize accurate stream : Yes
Defeat audio cache : Yes
Make use of C2 pointers : No
Read offset correction : 48
Overread into Lead-In and Lead-Out : No
Fill up missing offset samples with silence : Yes
Delete leading and trailing silent blocks : No
Null samples used in CRC calculations : Yes
Used interface : Installed external ASPI interface
Gap handling : Appended to previous track
Used output format : User Defined Encoder
Selected bitrate : 768 kBit/s
Quality : High
Add ID3 tag : No
Command line compressor : C:\Program Files\Exact Audio Copy\Flac\flac.exe
Additional command line options : -6 -V -T "ARTIST=%artist%" -T "TITLE=%title%" -T "ALBUM=%albumtitle%" -T "DATE=%year%" -T "TRACKNUMBER=%tracknr%" -T "GENRE=%genre%" -T "COMMENT=%comment%" -T "BAND=%albuminterpret%" -T "COMPOSER=%composer%" %haslyrics%--tag-from-file=LYRICS="%lyricsfile%"%haslyrics% -T "DISCNUMBER=%cdnumber%" -T "TOTALDISCS=%totalcds%" -T "TOTALTRACKS=%numtracks%" %hascover%--picture="%coverfile%"%hascover% %source% -o %dest%
TOC of the extracted CD
Track | Start | Length | Start sector | End sector
---------------------------------------------------------
1 | 0:00.00 | 3:55.58 | 0 | 17682
2 | 3:55.58 | 6:10.44 | 17683 | 45476
3 | 10:06.27 | 5:16.10 | 45477 | 69186
4 | 15:22.37 | 6:14.36 | 69187 | 97272
5 | 21:36.73 | 6:00.15 | 97273 | 124287
6 | 27:37.13 | 6:08.55 | 124288 | 151942
7 | 33:45.68 | 8:07.30 | 151943 | 188497
8 | 41:53.23 | 4:02.02 | 188498 | 206649
Track 1
Filename D:\zzz\01 - Polylemma.wav
Pre-gap length 0:00:02.00
Peak level 100.0 %
Extraction speed 4.2 X
Track quality 100.0 %
Test CRC 37F5440B
Copy CRC 37F5440B
Accurately ripped (confidence 1) [689D9581] (AR v2)
Copy OK
Track 2
Filename D:\zzz\02 - Garden.wav
Peak level 85.9 %
Extraction speed 5.0 X
Track quality 100.0 %
Test CRC EF8D2EBA
Copy CRC EF8D2EBA
Accurately ripped (confidence 1) [45CC7AC9] (AR v2)
Copy OK
Track 3
Filename D:\zzz\03 - Sugar's Dilemma.wav
Peak level 100.0 %
Extraction speed 5.5 X
Track quality 100.0 %
Test CRC 18E7F885
Copy CRC 18E7F885
Accurately ripped (confidence 1) [AD769DED] (AR v2)
Copy OK
Track 4
Filename D:\zzz\04 - Stratigraphy.wav
Peak level 100.0 %
Extraction speed 5.6 X
Track quality 99.9 %
Test CRC 31D12DEF
Copy CRC 31D12DEF
Accurately ripped (confidence 1) [4B2E9F92] (AR v2)
Copy OK
Track 5
Filename D:\zzz\05 - One Ocean At A Time.wav
Pre-gap length 0:00:02.00
Peak level 100.0 %
Extraction speed 6.0 X
Track quality 99.9 %
Test CRC B2925A10
Copy CRC B2925A10
Accurately ripped (confidence 1) [8028992C] (AR v2)
Copy OK
Track 6
Filename D:\zzz\06 - Crespect.wav
Peak level 100.0 %
Extraction speed 7.0 X
Track quality 100.0 %
Test CRC 75CCCAE6
Copy CRC 75CCCAE6
Accurately ripped (confidence 1) [5522E5F4] (AR v2)
Copy OK
Track 7
Filename D:\zzz\07 - Banners n' Bubbles.wav
Peak level 85.9 %
Extraction speed 7.6 X
Track quality 100.0 %
Test CRC B61AA340
Copy CRC B61AA340
Accurately ripped (confidence 1) [45D242AB] (AR v2)
Copy OK
Track 8
Filename D:\zzz\08 - Nupeez.wav
Peak level 100.0 %
Extraction speed 6.6 X
Track quality 99.9 %
Test CRC 6D3DB845
Copy CRC 6D3DB845
Accurately ripped (confidence 1) [7F05AD5C] (AR v2)
Copy OK
All tracks accurately ripped
No errors occurred
End of status report
==== Log checksum E01AEA65FC7D3B321BAE8C95C916D8660AE75B85D89B249AD9D5802B0FC4CB87 ====
 
Содержание индексной карты (.CUE)
REM GENRE "Free Jazz"
REM DATE 2011
REM DISCID 6C0AC308
REM COMMENT "ExactAudioCopy v1.0b3"
PERFORMER "Joe Hertenstein, Thomas Heberer, Joachim Badenhorst, Pascal Niggenkemper"
TITLE "Polylemma"
FILE "01 - Polylemma.wav" WAVE
TRACK 01 AUDIO
TITLE "Polylemma"
PERFORMER "Joe Hertenstein, Thomas Heberer, Joachim Badenhorst, Pascal Niggenkemper"
FLAGS DCP
INDEX 01 00:00:00
FILE "02 - Garden.wav" WAVE
TRACK 02 AUDIO
TITLE "Garden"
PERFORMER "Joe Hertenstein, Thomas Heberer, Joachim Badenhorst, Pascal Niggenkemper"
FLAGS DCP
INDEX 01 00:00:00
FILE "03 - Sugar's Dilemma.wav" WAVE
TRACK 03 AUDIO
TITLE "Sugar's Dilemma"
PERFORMER "Joe Hertenstein, Thomas Heberer, Joachim Badenhorst, Pascal Niggenkemper"
FLAGS DCP
INDEX 01 00:00:00
FILE "04 - Stratigraphy.wav" WAVE
TRACK 04 AUDIO
TITLE "Stratigraphy"
PERFORMER "Joe Hertenstein, Thomas Heberer, Joachim Badenhorst, Pascal Niggenkemper"
FLAGS DCP
INDEX 01 00:00:00
TRACK 05 AUDIO
TITLE "One Ocean At A Time"
PERFORMER "Joe Hertenstein, Thomas Heberer, Joachim Badenhorst, Pascal Niggenkemper"
FLAGS DCP
INDEX 00 06:12:36
FILE "05 - One Ocean At A Time.wav" WAVE
INDEX 01 00:00:00
FILE "06 - Crespect.wav" WAVE
TRACK 06 AUDIO
TITLE "Crespect"
PERFORMER "Joe Hertenstein, Thomas Heberer, Joachim Badenhorst, Pascal Niggenkemper"
FLAGS DCP
INDEX 01 00:00:00
FILE "07 - Banners n' Bubbles.wav" WAVE
TRACK 07 AUDIO
TITLE "Banners n' Bubbles"
PERFORMER "Joe Hertenstein, Thomas Heberer, Joachim Badenhorst, Pascal Niggenkemper"
FLAGS DCP
INDEX 01 00:00:00
FILE "08 - Nupeez.wav" WAVE
TRACK 08 AUDIO
TITLE "Nupeez"
PERFORMER "Joe Hertenstein, Thomas Heberer, Joachim Badenhorst, Pascal Niggenkemper"
FLAGS DCP
INDEX 01 00:00:00
 
Лог проверки качества
d:\>d:\aucdtect -d/-m0 d:\zzz\*.wav
auCDtect: CD records authenticity detector, version 0.8.2
Copyright (c) 2004 Oleg Berngardt. All rights reserved.
Copyright (c) 2004 Alexander Djourik. All rights reserved.
------------------------------------------------------------
Processing file: [01. Polylemma.wav]
------------------------------------------------------------
This track looks like MPEG with probability 100%
------------------------------------------------------------
Processing file: [02. Garden.wav]
------------------------------------------------------------
This track looks like MPEG with probability 80%
------------------------------------------------------------
Processing file: [03. Sugar's Dilemma.wav]
------------------------------------------------------------
This track looks like MPEG with probability 100%
------------------------------------------------------------
Processing file: [04. Stratigraphy.wav]
------------------------------------------------------------
This track looks like CDDA with probability 100%
------------------------------------------------------------
Processing file: [05. One Ocean At A Time.wav]
------------------------------------------------------------
This track looks like CDDA with probability 100%
------------------------------------------------------------
Processing file: [06. Crespect.wav]
------------------------------------------------------------
This track looks like MPEG with probability 100%
------------------------------------------------------------
Processing file: [07. Banners n' Bubbles.wav]
------------------------------------------------------------
This track looks like MPEG with probability 89%
------------------------------------------------------------
Processing file: [08. Nupeez.wav]
------------------------------------------------------------
This track looks like MPEG with probability 100%
------------------------------------------------------------
Final Conclusion:
------------------------------------------------------------
Could not qualify the source of these tracks.
Доп. информация:
 
Album Info & AAJ Review
(Joe Hertenstein) - 1,3,6,8
(Thomas Heberer) - 2,4,5,7
Recorded live to 2-track by Rick Krahn, NYC, February 2010
Mastered by Jim Clouse, NYC
Produced by Joe Hertenstein
Executive producer: Michel Passaretti
Painting: Joe Hertenstein
Photograph: Julie Brisson
Cover design: Marcel Boucher
Liner notes: Joe Hertenstein, Brooklyn, 04/2011
German drummer Joe Hertenstein currently resides in Brooklyn, NY, where he ingratiates his wares into the pulsating jazz-improvisation climate. His trio HNH, featuring quarter-tone trumpet ace Thomas Heberer and drummer Pascal Niggenkemper, receives a shrewdly devised uplift with the addition of bass clarinetist Joachim Badenhorst on Polylemma; a term that indicates a difficult predicament. Keeping in line with the title, the band executes a fluent sequence of decision-making processes throughout the program. It's an open-world montage of semi-structured themes and a barrage of contrasting abstracts.
The bass clarinet and trumpet alignment casts a contrapuntal, yet festive alignment of tonal swashes and polyrhythmic story lines, nailed down by the leader's multidimensional accompaniment. Rugged, smooth and sprightly, the quartet abides by a pliant mode of operations. The musicians incorporate bluesy fabrics, free expressionism and microtonal components while upping the ante and delving into geometrically inclined phrasings.
The band works through an aggregation of predicaments and problem-solving occurrences on "Stratigraphy," where odd-metered pulses and subtle hues profess a changeable atmosphere. However, the instrumentalists denounce congestion and clutter by navigating through a cogent course, fused into variable theme-building efforts.
At times sparse and roomy, these works signify a hub of cleverly enacted plot conversions. It's an agile unit that can transcend stately themes into loosely organized dialogues with regenerative plot developments. And the soloists' focused interactions intimate a highly artistic game plan that supersedes the tried and true, especially when considering the freer aspects of jazz. In effect, Polylemma makes perfect sense as the musicians unravel all the possibilities and seize numerous opportunities. - Glenn Astarita, AllAboutJazz
 
Состав
Joe Hertenstein: drums
Thomas Heberer: trumpet, quarter-tone trumpet
Joachim Badenhorst: bass clarinet
Pascal Niggenkemper: bass
По всем вопросам пишите личное сообщение пользователю M0p94ok.
07:29
157
Нет комментариев. Ваш будет первым!