Вы используете незарегистрированную версию компонента "Вкладки"!

Поиск

(Avant-Garde Jazz) [CD] Hannes Wienert & Peter Niklas Wilson - Alphea - 1995, FLAC (image+.cue), lossless

(Avant-Garde Jazz) [CD] Hannes Wienert & Peter Niklas Wilson - Alphea - 1995, FLAC (image+.cue), lossless
Треклист:
Hannes Wienert & Peter Niklas Wilson / Alphea
Жанр: Avant-Garde Jazz
Носитель: CD
Страна-производитель диска (релиза): UK
Год издания: 1995
Издатель (лейбл): Leo Lab ‎
Номер по каталогу: LEO LAB CD 009
Аудиокодек: FLAC (*.flac)
Тип рипа: image+.cue
Битрейт аудио: lossless
Продолжительность: 62:22
Источник (релизер): cd
Наличие сканов в содержимом раздачи: нет
Треклист:
1 Urach 4:35
2 Crayfish's Return 4:59
3 August 27 4:32
4 The Beauty And The Beast 4:55
5 Cloister 6:13
6 Overcast Brightness 6:22
7 Sunda 5:35
8 Metallurgical Engineering 6:02
9 Dream Reader Meeting 5:19
10 Both In One 2:17
11 Autumn Colors 6:45
12 Bird's Wedding 4:43
 
Лог создания рипа
Exact Audio Copy V1.0 beta 3 from 29. August 2011
EAC extraction logfile from 19. December 2014, 19:52
Hannes Wienert, Peter Niklas Wilson / Alphea
Used drive : Optiarc DVD RW AD-7170A Adapter: 0 ID: 0
Read mode : Secure
Utilize accurate stream : Yes
Defeat audio cache : Yes
Make use of C2 pointers : No
Read offset correction : 48
Overread into Lead-In and Lead-Out : No
Fill up missing offset samples with silence : Yes
Delete leading and trailing silent blocks : No
Null samples used in CRC calculations : Yes
Used interface : Native Win32 interface for Win NT & 2000
Used output format : User Defined Encoder
Selected bitrate : 320 kBit/s
Quality : High
Add ID3 tag : No
Command line compressor : C:\Program Files\Exact Audio Copy\Flac\flac.exe
Additional command line options : -V -8 -T "Date=%year%" -T "Genre=%genre%" %source%
TOC of the extracted CD
Track | Start | Length | Start sector | End sector
---------------------------------------------------------
1 | 0:00.32 | 4:35.08 | 32 | 20664
2 | 4:35.40 | 4:59.72 | 20665 | 43161
3 | 9:35.37 | 4:32.45 | 43162 | 63606
4 | 14:08.07 | 4:55.08 | 63607 | 85739
5 | 19:03.15 | 6:13.37 | 85740 | 113751
6 | 25:16.52 | 6:22.05 | 113752 | 142406
7 | 31:38.57 | 5:35.43 | 142407 | 167574
8 | 37:14.25 | 6:02.32 | 167575 | 194756
9 | 43:16.57 | 5:19.03 | 194757 | 218684
10 | 48:35.60 | 2:17.62 | 218685 | 229021
11 | 50:53.47 | 6:45.43 | 229022 | 259439
12 | 57:39.15 | 4:43.62 | 259440 | 280726
Range status and errors
Selected range
Filename C:\Documents and Settings\All Users\Hannes Wienert, Peter Niklas Wilson - Alphea.wav
Peak level 100.0 %
Extraction speed 2.2 X
Range quality 99.9 %
Test CRC 39E0199B
Copy CRC 39E0199B
Copy OK
No errors occurred
End of status report
==== Log checksum 28A265F55D94528FBF1A95BC81E7C2EB970112304DB6F95D3C615C95C69F612E ====
 
Содержание индексной карты (.CUE)
REM GENRE Jazz
REM DATE 1995
REM DISCID A90E9F0C
REM COMMENT "ExactAudioCopy v1.0b3"
PERFORMER "Hannes Wienert, Peter Niklas Wilson"
TITLE "Alphea"
FILE "Hannes Wienert, Peter Niklas Wilson - Alphea.flac" WAVE
TRACK 01 AUDIO
TITLE "Urach"
PERFORMER "Hannes Wienert, Peter Niklas Wilson"
INDEX 00 00:00:00
INDEX 01 00:00:32
TRACK 02 AUDIO
TITLE "CrayFish`s Return"
PERFORMER "Hannes Wienert, Peter Niklas Wilson"
INDEX 00 04:31:65
INDEX 01 04:35:40
TRACK 03 AUDIO
TITLE "August 27"
PERFORMER "Hannes Wienert, Peter Niklas Wilson"
INDEX 00 09:29:67
INDEX 01 09:35:37
TRACK 04 AUDIO
TITLE "The Beauty And The Beast"
PERFORMER "Hannes Wienert, Peter Niklas Wilson"
INDEX 00 14:03:57
INDEX 01 14:08:07
TRACK 05 AUDIO
TITLE "Cloiser"
PERFORMER "Hannes Wienert, Peter Niklas Wilson"
INDEX 00 18:58:30
INDEX 01 19:03:15
TRACK 06 AUDIO
TITLE "Overcast Brightness"
PERFORMER "Hannes Wienert, Peter Niklas Wilson"
INDEX 00 25:12:02
INDEX 01 25:16:52
TRACK 07 AUDIO
TITLE "Sunda"
PERFORMER "Hannes Wienert, Peter Niklas Wilson"
INDEX 00 31:35:35
INDEX 01 31:38:57
TRACK 08 AUDIO
TITLE "Matallurgical Engineering"
PERFORMER "Hannes Wienert, Peter Niklas Wilson"
INDEX 00 37:09:67
INDEX 01 37:14:25
TRACK 09 AUDIO
TITLE "Dream Reader Meeting"
PERFORMER "Hannes Wienert, Peter Niklas Wilson"
INDEX 00 43:13:25
INDEX 01 43:16:57
TRACK 10 AUDIO
TITLE "Both In One"
PERFORMER "Hannes Wienert, Peter Niklas Wilson"
INDEX 00 48:31:05
INDEX 01 48:35:60
TRACK 11 AUDIO
TITLE "Autumn Colours"
PERFORMER "Hannes Wienert, Peter Niklas Wilson"
INDEX 00 50:49:03
INDEX 01 50:53:47
TRACK 12 AUDIO
TITLE "Bird`s Wedding"
PERFORMER "Hannes Wienert, Peter Niklas Wilson"
INDEX 00 57:35:22
INDEX 01 57:39:15
Доп. информация: Recorded on 26/27 August 1993 at Müggenpark Studios, Hamburg, Germany
 
Об альбоме (сборнике)
Alphea, by the Hamburg duo of veteran bassist Peter Niklas Wilson (Anthony Braxton, John Tchicai, Marion Brown, Derek Bailey, et al.) and saxophonist and visual artist Hannes Wienert, presents an interesting construct. The duo makes a music that is equal parts improvisation and composition, and bases itself in sonorities and harmonic studies rather than in melodies and improvisational acrobatics. They are surprisingly "inside" for how adventurous the music on this CD is. Alphea's tunes -- and they are all originals or collaborations with one another -- reflect a noir-ish side of jazz and a European sense of adventure and restraint. There is very little "free jazz" on the disc. Tonal explorations, and the relationship of harmonic architecture as it exists between alto, soprano, and trumpet and the double bass -- and the attendant, sometimes fickle sonances -- are what's at issue. They express these musical concerns through accessible forms, such as '50s cool jazz, post-bop idiomatics, and what the pair perceives as "film music." "Crayfish's Return" is a noir-ish blues that focuses on the alto playing through a cross section of blues and swing modalities; as Wilson's bass opens up a gateway for new tempos and overtonal improvisation from within, he moves far to the left of his partner, bowing, scraping, and popping chords in assent to the bluesed-out wailing and angular arpeggios trotted out by Wienert. On "Dream Reader Meeting," Wienert does his best Steve Lacy, creating a wailing singsong melody in B flat, with 6/4 time chorded in triple time by Wilson! The accents are actually mode changes, flopping back and forth between stinging blues and '60s modal considerations, with harmonic questions and answers floating back and forth across what seems to be a melody, but is actually a ghostly kind of aggressive harmonic resonance. There is little on this set that doesn't surprise or shock. The musical and innovative qualities displayed here are off the register in terms of structured composition and restrained improvisation. If this set is their debut, and the language is already this sophisticated and intimate, then listeners need a another dozen -- and quickly -- if only to see how this duo develops every step of the way.
 
Состав
Double Bass – Peter Niklas Wilson
Saxophone, Trumpet – Hannes Wienert
По всем вопросам пишите личное сообщение пользователю M0p94ok.
07:31
262
Нет комментариев. Ваш будет первым!