Вы используете незарегистрированную версию компонента "Вкладки"!

Поиск

(Avant-Garde Jazz, Contemporary Jazz) [CD] De Beren Gieren & Susana Santos Silva - The Detour Fish (Live In Ljubljana) - 2014, APE (image+.cue), lossless

(Avant-Garde Jazz, Contemporary Jazz) [CD] De Beren Gieren & Susana Santos Silva - The Detour Fish (Live In Ljubljana) - 2014, APE (image+.cue), lossless
Треклист:
De Beren Gieren & Susana Santos Silva
The Detour Fish (Live In Ljubljana)
Жанр: Avant-Garde Jazz, Contemporary Jazz
Носитель: CD
Страна-производитель диска (релиза): Португалия
Год издания: 2014
Издатель (лейбл): Clean Feed
Аудиокодек: APE (*.ape)
Тип рипа: image+.cue
Битрейт аудио: lossless
Продолжительность: 58:11
Источник (релизер): Я
Наличие сканов в содержимом раздачи: нет
Треклист:
1. Slow Garnish 9:08
2. Aquarium Benefits 5:40
3. Weirs 7:26
4. Dance Of Trouts 6:52
5. Slippery Men (On The Riverbank) 8:05
6. Sweet Repose Threat 7:47
7. Battle With Fishself 5:51
8. Under Swirling Waters 7:22
 
Лог создания рипа
Exact Audio Copy V1.0 beta 3 from 29. August 2011
Отчёт EAC об извлечении, выполненном 21. декабря 2014, 19:21
De Beren Gieren & Susana Santos Silva / The Detour Fish (Live In Ljubljana)
Дисковод: TSSTcorpCDRWDVD TSL462D Adapter: 3 ID: 0
Режим чтения : Достоверность
Использование точного потока : Да
Отключение кэша аудио : Да
Использование указателей C2 : Нет
Коррекция смещения при чтении : 6
Способность читать области Lead-in и Lead-out : Нет
Заполнение пропущенных сэмплов тишиной : Да
Удаление блоков с тишиной в начале и конце : Нет
При вычислениях CRC использовались нулевые сэмплы : Да
Интерфейс : Встроенный Win32-интерфейс для Win NT/2000
Выходной формат : Внутренние WAV-операции
Формат сэмплов : 44.100 Гц; 16 бит; стерео
TOC извлечённого CD
Трек | Старт | Длительность | Начальный сектор | Конечный сектор
---------------------------------------------------------------------
1 | 0:00.00 | 9:07.40 | 0 | 41064
2 | 9:07.40 | 5:40.37 | 41065 | 66601
3 | 14:48.02 | 7:25.49 | 66602 | 100025
4 | 22:13.51 | 6:52.02 | 100026 | 130927
5 | 29:05.53 | 8:05.21 | 130928 | 167323
6 | 37:10.74 | 7:47.31 | 167324 | 202379
7 | 44:58.30 | 5:50.40 | 202380 | 228669
8 | 50:48.70 | 7:22.21 | 228670 | 261840
Характеристики диапазона извлечения и сообщения об ошибках
Выбранный диапазон
Имя файла E:\Music\De Beren Gieren & Susana Santos Silva_The Detour Fish (Live In Ljubljana)_2014\De Beren Gieren & Susana Santos Silva - The Detour Fish (Live In Ljubljana).wav
Пиковый уровень 99.6 %
Скорость извлечения 4.7 X
Качество диапазона 100.0 %
CRC теста A5BE448C
CRC копии A5BE448C
Копирование... OK
Ошибок не произошло
AccurateRip: сводка
Трек 1 отсутствует в базе данных
Трек 2 отсутствует в базе данных
Трек 3 отсутствует в базе данных
Трек 4 отсутствует в базе данных
Трек 5 отсутствует в базе данных
Трек 6 отсутствует в базе данных
Трек 7 отсутствует в базе данных
Трек 8 отсутствует в базе данных
Ни одного трека нет в базе AccurateRip
Конец отчёта
 
Содержание индексной карты (.CUE)
REM GENRE Jazz
REM DATE 2014
REM DISCID 5E0DA308
REM COMMENT "ExactAudioCopy v1.0b3"
PERFORMER "De Beren Gieren & Susana Santos Silva"
TITLE "The Detour Fish (Live In Ljubljana)"
FILE "De Beren Gieren & Susana Santos Silva - The Detour Fish (Live In Ljubljana).wav" WAVE
TRACK 01 AUDIO
TITLE "Slow Garnish"
PERFORMER "De Beren Gieren & Susana Santos Silva"
INDEX 01 00:00:00
TRACK 02 AUDIO
TITLE "Aquarium Benefits"
PERFORMER "De Beren Gieren & Susana Santos Silva"
INDEX 00 09:05:41
INDEX 01 09:07:40
TRACK 03 AUDIO
TITLE "Weirs"
PERFORMER "De Beren Gieren & Susana Santos Silva"
INDEX 00 14:46:03
INDEX 01 14:48:02
TRACK 04 AUDIO
TITLE "Dance Of Trouts"
PERFORMER "De Beren Gieren & Susana Santos Silva"
INDEX 00 22:11:52
INDEX 01 22:13:51
TRACK 05 AUDIO
TITLE "Slippery Men (On The Riverbank)"
PERFORMER "De Beren Gieren & Susana Santos Silva"
INDEX 00 29:03:54
INDEX 01 29:05:53
TRACK 06 AUDIO
TITLE "Sweet Repose Threat"
PERFORMER "De Beren Gieren & Susana Santos Silva"
INDEX 00 37:08:00
INDEX 01 37:10:74
TRACK 07 AUDIO
TITLE "Battle With Fishself"
PERFORMER "De Beren Gieren & Susana Santos Silva"
INDEX 00 44:56:31
INDEX 01 44:58:30
TRACK 08 AUDIO
TITLE "Under Swirling Waters"
PERFORMER "De Beren Gieren & Susana Santos Silva"
INDEX 00 50:46:71
INDEX 01 50:48:70
https://www.youtube.com/watch?v=FBhELxoGF3Q
 
Состав
Fulco Ottervanger-piano
Susana Santos Silva-trumpet, flugelhorn
Lieven Van Pee-double bass
Simon Segers-drums
По всем вопросам пишите личное сообщение пользователю M0p94ok.
07:31
206
Нет комментариев. Ваш будет первым!