Вы используете незарегистрированную версию компонента "Вкладки"!

Поиск

(Free Jazz, Fusion, Contemporary Jazz) [CD] Actis Band (Carlo Actis Dato, Massimo Rossi, Federico Marchesano, Karsten Lipp, Dario Bruna) - Cina! - 2007, FLAC (tracks+.cue), lossless

(Free Jazz, Fusion, Contemporary Jazz) [CD] Actis Band (Carlo Actis Dato, Massimo Rossi, Federico Marchesano, Karsten Lipp, Dario Bruna) - Cina! - 2007, FLAC (tracks+.cue), lossless
Треклист:
Actis Band / Zhon Guo - Cina!
Жанр: Free Jazz, Fusion, Contemporary Jazz
Носитель: CD
Страна-производитель диска (релиза): UK
Год издания: 2007
Издатель (лейбл): Leo Records ‎
Номер по каталогу: CD LR 497
Аудиокодек: FLAC (*.flac)
Тип рипа: tracks+.cue
Битрейт аудио: lossless
Продолжительность: 64:56
Источник (релизер): cd
Наличие сканов в содержимом раздачи: нет
Треклист:
1. Fela 10:05
2. Erzurum 4:45
3. Craco 7:15
4. SOS In Djakarta 7:57
5. Penelope 5:08
6. Bhopal 8:55
7. Luderitz 4:37
8. Mumbai 5:57
9. Ataturk 8:16
10. Conclusion(e) 1:18
 
Лог создания рипа
Exact Audio Copy V1.0 beta 3 from 29. August 2011
EAC extraction logfile from 16. December 2014, 19:05
Actis Band / Zhon Guo - Cina!
Used drive : ASUS DRW-24F1ST a Adapter: 0 ID: 0
Read mode : Secure
Utilize accurate stream : Yes
Defeat audio cache : Yes
Make use of C2 pointers : No
Read offset correction : 6
Overread into Lead-In and Lead-Out : No
Fill up missing offset samples with silence : Yes
Delete leading and trailing silent blocks : No
Null samples used in CRC calculations : Yes
Used interface : Native Win32 interface for Win NT & 2000
Gap handling : Appended to previous track
Used output format : User Defined Encoder
Selected bitrate : 320 kBit/s
Quality : High
Add ID3 tag : No
Command line compressor : D:\Programs\Exact Audio Copy\Flac\flac.exe
Additional command line options : -V -8 -T "Genre=%genre%" -T "Artist=%artist%" -T "Title=%title%" -T "Album=%albumtitle%" -T "Date=%year%" -T "Tracknumber=%tracknr%" -T "Comment=%comment%" %source%
TOC of the extracted CD
Track | Start | Length | Start sector | End sector
---------------------------------------------------------
1 | 0:00.00 | 10:09.65 | 0 | 45739
2 | 10:09.65 | 4:49.66 | 45740 | 67480
3 | 14:59.56 | 7:20.04 | 67481 | 100484
4 | 22:19.60 | 8:01.31 | 100485 | 136590
5 | 30:21.16 | 5:12.24 | 136591 | 160014
6 | 35:33.40 | 8:59.48 | 160015 | 200487
7 | 44:33.13 | 4:41.42 | 200488 | 221604
8 | 49:14.55 | 6:01.28 | 221605 | 248707
9 | 55:16.08 | 8:20.31 | 248708 | 286238
10 | 63:36.39 | 1:20.31 | 286239 | 292269
Track 1
Filename D:\EAC\01 Fela.wav
Pre-gap length 0:00:02.00
Peak level 98.8 %
Extraction speed 4.8 X
Track quality 99.9 %
Test CRC 8DCFFFA0
Copy CRC 8DCFFFA0
Copy OK
Track 2
Filename D:\EAC\02 Erzurum.wav
Pre-gap length 0:00:02.00
Peak level 98.8 %
Extraction speed 5.5 X
Track quality 100.0 %
Test CRC 955D39DE
Copy CRC 955D39DE
Copy OK
Track 3
Filename D:\EAC\03 Craco.wav
Pre-gap length 0:00:02.00
Peak level 98.8 %
Extraction speed 6.2 X
Track quality 100.0 %
Test CRC 27E42850
Copy CRC 27E42850
Copy OK
Track 4
Filename D:\EAC\04 SOS in Djakarta.wav
Pre-gap length 0:00:02.00
Peak level 98.8 %
Extraction speed 6.5 X
Track quality 99.9 %
Test CRC B48DC6DD
Copy CRC B48DC6DD
Copy OK
Track 5
Filename D:\EAC\05 Penelope.wav
Pre-gap length 0:00:02.00
Peak level 98.9 %
Extraction speed 7.1 X
Track quality 100.0 %
Test CRC D2FDE512
Copy CRC D2FDE512
Copy OK
Track 6
Filename D:\EAC\06 Bhopal.wav
Pre-gap length 0:00:02.00
Peak level 98.8 %
Extraction speed 7.9 X
Track quality 100.0 %
Test CRC F77DA577
Copy CRC F77DA577
Copy OK
Track 7
Filename D:\EAC\07 Luderitz.wav
Pre-gap length 0:00:02.00
Peak level 98.8 %
Extraction speed 7.7 X
Track quality 100.0 %
Test CRC 6262D71E
Copy CRC 6262D71E
Copy OK
Track 8
Filename D:\EAC\08 Mumbai.wav
Pre-gap length 0:00:02.00
Peak level 98.8 %
Extraction speed 8.3 X
Track quality 100.0 %
Test CRC 3319C592
Copy CRC 3319C592
Copy OK
Track 9
Filename D:\EAC\09 Ataturk.wav
Pre-gap length 0:00:02.00
Peak level 98.8 %
Extraction speed 8.9 X
Track quality 100.0 %
Test CRC 252102E7
Copy CRC 252102E7
Copy OK
Track 10
Filename D:\EAC\10 Conclusion(e).wav
Pre-gap length 0:00:02.00
Peak level 98.8 %
Extraction speed 6.6 X
Track quality 100.0 %
Test CRC C5645C76
Copy CRC C5645C76
Copy OK
No errors occurred
End of status report
==== Log checksum 40214C133F26577B13D1B7E8B4F004A15CA6D9C34F5214154A7B7E0D265F38AF ====
 
Содержание индексной карты (.CUE)
REM GENRE Jazz
REM DATE 2007
REM DISCID 830F380A
REM COMMENT "ExactAudioCopy v1.0b3"
PERFORMER "Actis Band"
TITLE "Zhon Guo - Cina!"
FILE "01 Fela.wav" WAVE
TRACK 01 AUDIO
TITLE "Fela"
PERFORMER "Actis Band"
INDEX 01 00:00:00
TRACK 02 AUDIO
TITLE "Erzurum"
PERFORMER "Actis Band"
INDEX 00 10:07:65
FILE "02 Erzurum.wav" WAVE
INDEX 01 00:00:00
TRACK 03 AUDIO
TITLE "Craco"
PERFORMER "Actis Band"
INDEX 00 04:47:66
FILE "03 Craco.wav" WAVE
INDEX 01 00:00:00
TRACK 04 AUDIO
TITLE "SOS in Djakarta"
PERFORMER "Actis Band"
INDEX 00 07:18:04
FILE "04 SOS in Djakarta.wav" WAVE
INDEX 01 00:00:00
TRACK 05 AUDIO
TITLE "Penelope"
PERFORMER "Actis Band"
INDEX 00 07:59:31
FILE "05 Penelope.wav" WAVE
INDEX 01 00:00:00
TRACK 06 AUDIO
TITLE "Bhopal"
PERFORMER "Actis Band"
INDEX 00 05:10:24
FILE "06 Bhopal.wav" WAVE
INDEX 01 00:00:00
TRACK 07 AUDIO
TITLE "Luderitz"
PERFORMER "Actis Band"
INDEX 00 08:57:48
FILE "07 Luderitz.wav" WAVE
INDEX 01 00:00:00
TRACK 08 AUDIO
TITLE "Mumbai"
PERFORMER "Actis Band"
INDEX 00 04:39:42
FILE "08 Mumbai.wav" WAVE
INDEX 01 00:00:00
TRACK 09 AUDIO
TITLE "Ataturk"
PERFORMER "Actis Band"
INDEX 00 05:59:28
FILE "09 Ataturk.wav" WAVE
INDEX 01 00:00:00
TRACK 10 AUDIO
TITLE "Conclusion(e)"
PERFORMER "Actis Band"
INDEX 00 08:18:31
FILE "10 Conclusion(e).wav" WAVE
INDEX 01 00:00:00
 
Об альбоме (сборнике)
This is the third release by Actis Band on Leo Records with the same line-up as the first CD "Garibaldi" which sold out within first six months of the release. What's it all about? Exploring the musical world with no borders and visas. Looking constantly over the horizon. Why "Cina!"? Because tomorrow is the question...... and China is the future! Looking around for every sound with creativity, respect, and the spirit of exploration... As on two previous discs there are 10 original compositions by Carlo Actis Dato played with power, precision and wit which are the trademark of Carlo and his band.
 
Состав
Alto Saxophone, Soprano Saxophone – Massimo Rossi
Baritone Saxophone, Tenor Saxophone, Clarinet – Carlo Actis Dato
Drums – Dario Bruna
Electric Bass, Acoustic Bass – Federico Marchesano
Guitar – Karsten Lipp
По всем вопросам пишите личное сообщение пользователю M0p94ok.
07:32
141
Нет комментариев. Ваш будет первым!