Поиск

(Free Jazz, Contemporary Jazz) Les Emeudroides - Les Emeudroides - 2008, FLAC (tracks+.cue), lossless

(Free Jazz, Contemporary Jazz) Les Emeudroides - Les Emeudroides - 2008, FLAC (tracks+.cue), lossless
Треклист:
Les Emeudroïdes / Les Emeudroïdes
Жанр: Free Jazz, Contemporary Jazz
Страна-производитель диска (релиза): Germany
Год издания: 2008
Издатель (лейбл): NEOS Jazz
Номер по каталогу: 40805
Аудиокодек: FLAC (*.flac)
Тип рипа: tracks+.cue
Битрейт аудио: lossless
Продолжительность: 55:30
Источник (релизер): cd
Наличие сканов в содержимом раздачи: нет
Треклист:
[01] Perplexe 1 (R. Monteiro) 01:35
[02] L’Homme chaussure (J. Rühl) 10:28
[03] Perplexe 2 (C. Canonne) 01:35
[04] Herr Daïra (N. Nageotte) 06:22
[05] Perplexe 3 (J. Rühl) 01:35
[06] Squirrel 27 (C. Canonne) 14:49
[07] Perplexe 4 (N. Nageotte) 01:35
[08] Villeuses Volutes (R. Monteiro) 07:37
[09] Perplexe 5 (J. Bruyère) 01:35
[10] Excusez–moi Thomas F. (J. Rühl) 07:40
 
Лог создания рипа
Exact Audio Copy V1.0 beta 3 from 29. August 2011
EAC extraction logfile from 16. December 2014, 18:31
Les Emeudroides / Les Emeudroides
Used drive : ASUS DRW-24F1ST a Adapter: 0 ID: 0
Read mode : Secure
Utilize accurate stream : Yes
Defeat audio cache : Yes
Make use of C2 pointers : No
Read offset correction : 6
Overread into Lead-In and Lead-Out : No
Fill up missing offset samples with silence : Yes
Delete leading and trailing silent blocks : No
Null samples used in CRC calculations : Yes
Used interface : Native Win32 interface for Win NT & 2000
Gap handling : Appended to previous track
Used output format : User Defined Encoder
Selected bitrate : 320 kBit/s
Quality : High
Add ID3 tag : No
Command line compressor : D:\Programs\Exact Audio Copy\Flac\flac.exe
Additional command line options : -V -8 -T "Genre=%genre%" -T "Artist=%artist%" -T "Title=%title%" -T "Album=%albumtitle%" -T "Date=%year%" -T "Tracknumber=%tracknr%" -T "Comment=%comment%" %source%
TOC of the extracted CD
Track | Start | Length | Start sector | End sector
---------------------------------------------------------
1 | 0:00.00 | 1:38.40 | 0 | 7389
2 | 1:38.40 | 10:30.62 | 7390 | 54701
3 | 12:09.27 | 1:41.21 | 54702 | 62297
4 | 13:50.48 | 6:24.43 | 62298 | 91140
5 | 20:15.16 | 1:40.49 | 91141 | 98689
6 | 21:55.65 | 14:51.03 | 98690 | 165517
7 | 36:46.68 | 1:41.00 | 165518 | 173092
8 | 38:27.68 | 7:39.68 | 173093 | 207585
9 | 46:07.61 | 1:42.62 | 207586 | 215297
10 | 47:50.48 | 7:40.21 | 215298 | 249818
Track 1
Filename D:\EAC\01 Perplexe 1.wav
Pre-gap length 0:00:02.00
Peak level 97.1 %
Extraction speed 3.5 X
Track quality 100.0 %
Test CRC D00B090E
Copy CRC D00B090E
Copy OK
Track 2
Filename D:\EAC\02 L’Homme chaussure.wav
Pre-gap length 0:00:02.00
Peak level 96.4 %
Extraction speed 5.4 X
Track quality 100.0 %
Test CRC 6FBCFA64
Copy CRC 6FBCFA64
Copy OK
Track 3
Filename D:\EAC\03 Perplexe 2.wav
Pre-gap length 0:00:02.00
Peak level 67.5 %
Extraction speed 4.5 X
Track quality 100.0 %
Test CRC 39FEFF0F
Copy CRC 39FEFF0F
Copy OK
Track 4
Filename D:\EAC\04 Herr Daira.wav
Pre-gap length 0:00:02.00
Peak level 99.8 %
Extraction speed 6.1 X
Track quality 100.0 %
Test CRC 96D20C62
Copy CRC 96D20C62
Copy OK
Track 5
Filename D:\EAC\05 Perplexe 3.wav
Pre-gap length 0:00:02.00
Peak level 50.7 %
Extraction speed 5.1 X
Track quality 100.0 %
Test CRC 99E24282
Copy CRC 99E24282
Copy OK
Track 6
Filename D:\EAC\06 Squirrel 27.wav
Pre-gap length 0:00:02.00
Peak level 94.0 %
Extraction speed 7.2 X
Track quality 99.9 %
Test CRC 485BC627
Copy CRC 485BC627
Copy OK
Track 7
Filename D:\EAC\07 Perplexe 4.wav
Pre-gap length 0:00:02.00
Peak level 69.9 %
Extraction speed 6.0 X
Track quality 100.0 %
Test CRC 0635F798
Copy CRC 0635F798
Copy OK
Track 8
Filename D:\EAC\08 Villeuses Volutes.wav
Pre-gap length 0:00:02.00
Peak level 97.7 %
Extraction speed 8.0 X
Track quality 100.0 %
Test CRC A07CFC76
Copy CRC A07CFC76
Copy OK
Track 9
Filename D:\EAC\09 Perplexe 5.wav
Pre-gap length 0:00:02.00
Peak level 95.2 %
Extraction speed 6.5 X
Track quality 100.0 %
Test CRC 3D6CCE7E
Copy CRC 3D6CCE7E
Copy OK
Track 10
Filename D:\EAC\10 Excusez–moi Thomas F..wav
Pre-gap length 0:00:02.00
Peak level 96.6 %
Extraction speed 8.7 X
Track quality 100.0 %
Test CRC 18FEAD23
Copy CRC 18FEAD23
Copy OK
No errors occurred
End of status report
==== Log checksum C079F6F3E3C5A4BD522AF0D54FE35B025BC3AD5DA4B517B7CF66B917AFEC9468 ====
 
Содержание индексной карты (.CUE)
REM GENRE Jazz
REM DATE 2008
REM DISCID 770D020A
REM COMMENT "ExactAudioCopy v1.0b3"
PERFORMER "Les Emeudroides"
TITLE "Les Emeudroides"
FILE "01 Perplexe 1.wav" WAVE
TRACK 01 AUDIO
TITLE "Perplexe 1"
PERFORMER "Les Emeudroides"
ISRC DEGF70840501
INDEX 01 00:00:00
TRACK 02 AUDIO
TITLE "L’Homme chaussure"
PERFORMER "Les Emeudroides"
ISRC DEGF70840502
INDEX 00 01:36:40
FILE "02 L’Homme chaussure.wav" WAVE
INDEX 01 00:00:00
TRACK 03 AUDIO
TITLE "Perplexe 2"
PERFORMER "Les Emeudroides"
ISRC DEGF70840503
INDEX 00 10:28:62
FILE "03 Perplexe 2.wav" WAVE
INDEX 01 00:00:00
TRACK 04 AUDIO
TITLE "Herr Daira"
PERFORMER "Les Emeudroides"
ISRC DEGF70840504
INDEX 00 01:39:21
FILE "04 Herr Daira.wav" WAVE
INDEX 01 00:00:00
TRACK 05 AUDIO
TITLE "Perplexe 3"
PERFORMER "Les Emeudroides"
ISRC DEGF70840505
INDEX 00 06:22:43
FILE "05 Perplexe 3.wav" WAVE
INDEX 01 00:00:00
TRACK 06 AUDIO
TITLE "Squirrel 27"
PERFORMER "Les Emeudroides"
ISRC DEGF70840506
INDEX 00 01:38:49
FILE "06 Squirrel 27.wav" WAVE
INDEX 01 00:00:00
TRACK 07 AUDIO
TITLE "Perplexe 4"
PERFORMER "Les Emeudroides"
ISRC DEGF70840507
INDEX 00 14:49:03
FILE "07 Perplexe 4.wav" WAVE
INDEX 01 00:00:00
TRACK 08 AUDIO
TITLE "Villeuses Volutes"
PERFORMER "Les Emeudroides"
ISRC DEGF70840508
INDEX 00 01:39:00
FILE "08 Villeuses Volutes.wav" WAVE
INDEX 01 00:00:00
TRACK 09 AUDIO
TITLE "Perplexe 5"
PERFORMER "Les Emeudroides"
ISRC DEGF70840509
INDEX 00 07:37:68
FILE "09 Perplexe 5.wav" WAVE
INDEX 01 00:00:00
TRACK 10 AUDIO
TITLE "Excusez–moi Thomas F."
PERFORMER "Les Emeudroides"
ISRC DEGF70840510
INDEX 00 01:40:62
FILE "10 Excusez–moi Thomas F..wav" WAVE
INDEX 01 00:00:00
Доп. информация: Recorded at L’Artscène Studio, Bourgoin-Jallieu, France, 14–16 October 2007
 
Состав
Jérémy Bruyère, contrabass and electric bass
Clément Canonne, piano and synthesizer
Roméo Monteiro, drums and percussion
Nicolas Nageotte, saxophones and zurna
Joris Rühl, clarinet and bass clarinet
По всем вопросам пишите личное сообщение пользователю M0p94ok.
07:33
154
Нет комментариев. Ваш будет первым!