Вы используете незарегистрированную версию компонента "Вкладки"!

Поиск

(Free jazz) [CD] James Finn Trio - Plaza de Toros - 2005, FLAC (tracks.+cue), lossless

(Free jazz) [CD] James Finn Trio - Plaza de Toros - 2005, FLAC (tracks.+cue), lossless
Треклист:
James Finn Trio / Plaza de Toros
Жанр: Free jazz
Носитель: CD
Год издания: 2005
Издатель (лейбл): Clean Feed
Аудиокодек: FLAC (*.flac)
Тип рипа: tracks.+cue
Битрейт аудио: lossless
Продолжительность: 1:04:05
Источник (релизер): Вата, релизер - 6060842
Наличие сканов в содержимом раздачи: нет
Треклист:
01. Toreo de Capa
02. Plaza de Toros
03. The Phantom Bull of Seville
04. El Tercio de Varas
05. Eyes of Angelina
06. El Tercio de Vanderillas
07. El Tercio de Muleta
08. La Estocada
09. Toro Bravo
 
Лог создания рипа
X Lossless Decoder version 20130127 (142.3)
XLD extraction logfile from 2013-01-28 23:42:44 +0400
James Finn Trio / Plaza De Toros
Used drive : HL-DT-ST DVDRW GX30N (revision RP09)
Media type : Pressed CD
Ripper mode : XLD Secure Ripper
Disable audio cache : OK for the drive with a cache less than 1375KiB
Make use of C2 pointers : NO
Read offset correction : 6
Max retry count : 20
Gap status : Analyzed, Appended
TOC of the extracted CD
Track | Start | Length | Start sector | End sector
---------------------------------------------------------
1 | 00:00:00 | 04:30:43 | 0 | 20292
2 | 04:30:43 | 06:31:62 | 20293 | 49679
3 | 11:02:30 | 08:32:00 | 49680 | 88079
4 | 19:34:30 | 09:20:57 | 88080 | 130136
5 | 28:55:12 | 03:52:63 | 130137 | 147599
6 | 32:48:00 | 07:55:50 | 147600 | 183274
7 | 40:43:50 | 07:12:59 | 183275 | 215733
8 | 47:56:34 | 08:11:60 | 215734 | 252618
9 | 56:08:19 | 07:56:70 | 252619 | 288388
AccurateRip Summary
Disc not found in AccurateRip DB.
All Tracks
Album gain : -2.96 dB
Peak : 1.000000
Statistics
Read error : 0
Jitter error (maybe fixed) : 0
Retry sector count : 0
Damaged sector count : 0
Track 01
Filename : /Users/anch/Music/FLAC/James Finn Trio - 2005 - Plaza De Toros [FLAC]/01 - Toreo De Capa.flac
/Users/anch/Music/FLAC/James Finn Trio - 2005 - Plaza De Toros [MP3 320]/01 - Toreo De Capa.mp3
/Users/anch/Music/FLAC/James Finn Trio - 2005 - Plaza De Toros [MP3 V0]/01 - Toreo De Capa.mp3
Pre-gap length : 00:02:00
Track gain : -2.22 dB
Peak : 1.000000
CRC32 hash (test run) : DCDB3C9B
CRC32 hash : DCDB3C9B
CRC32 hash (skip zero) : 454F022D
AccurateRip v1 signature : CAC3B869
AccurateRip v2 signature : BA05A794
->Track not present in AccurateRip database.
Statistics
Read error : 0
Jitter error (maybe fixed) : 0
Retry sector count : 0
Damaged sector count : 0
Track 02
Filename : /Users/anch/Music/FLAC/James Finn Trio - 2005 - Plaza De Toros [FLAC]/02 - Plaza De Toros.flac
/Users/anch/Music/FLAC/James Finn Trio - 2005 - Plaza De Toros [MP3 320]/02 - Plaza De Toros.mp3
/Users/anch/Music/FLAC/James Finn Trio - 2005 - Plaza De Toros [MP3 V0]/02 - Plaza De Toros.mp3
Track gain : -3.40 dB
Peak : 1.000000
CRC32 hash (test run) : 307652C6
CRC32 hash : 307652C6
CRC32 hash (skip zero) : C0132880
AccurateRip v1 signature : 4F31DE74
AccurateRip v2 signature : 2A628524
->Track not present in AccurateRip database.
Statistics
Read error : 0
Jitter error (maybe fixed) : 0
Retry sector count : 0
Damaged sector count : 0
Track 03
Filename : /Users/anch/Music/FLAC/James Finn Trio - 2005 - Plaza De Toros [FLAC]/03 - The Phantom Bull Of Seville.flac
/Users/anch/Music/FLAC/James Finn Trio - 2005 - Plaza De Toros [MP3 320]/03 - The Phantom Bull Of Seville.mp3
/Users/anch/Music/FLAC/James Finn Trio - 2005 - Plaza De Toros [MP3 V0]/03 - The Phantom Bull Of Seville.mp3
Track gain : -1.17 dB
Peak : 1.000000
CRC32 hash (test run) : 15067754
CRC32 hash : 15067754
CRC32 hash (skip zero) : 21B311FE
AccurateRip v1 signature : 9E11B081
AccurateRip v2 signature : 66E554F8
->Track not present in AccurateRip database.
Statistics
Read error : 0
Jitter error (maybe fixed) : 0
Retry sector count : 0
Damaged sector count : 0
Track 04
Filename : /Users/anch/Music/FLAC/James Finn Trio - 2005 - Plaza De Toros [FLAC]/04 - El Tercio De Varas.flac
/Users/anch/Music/FLAC/James Finn Trio - 2005 - Plaza De Toros [MP3 320]/04 - El Tercio De Varas.mp3
/Users/anch/Music/FLAC/James Finn Trio - 2005 - Plaza De Toros [MP3 V0]/04 - El Tercio De Varas.mp3
Track gain : -3.13 dB
Peak : 1.000000
CRC32 hash (test run) : 0367FCEB
CRC32 hash : 0367FCEB
CRC32 hash (skip zero) : 05379423
AccurateRip v1 signature : 85E7F9F4
AccurateRip v2 signature : 9513C44F
->Track not present in AccurateRip database.
Statistics
Read error : 0
Jitter error (maybe fixed) : 0
Retry sector count : 0
Damaged sector count : 0
Track 05
Filename : /Users/anch/Music/FLAC/James Finn Trio - 2005 - Plaza De Toros [FLAC]/05 - Eyes Of Angelina.flac
/Users/anch/Music/FLAC/James Finn Trio - 2005 - Plaza De Toros [MP3 320]/05 - Eyes Of Angelina.mp3
/Users/anch/Music/FLAC/James Finn Trio - 2005 - Plaza De Toros [MP3 V0]/05 - Eyes Of Angelina.mp3
Track gain : -4.05 dB
Peak : 1.000000
CRC32 hash (test run) : 21F349BA
CRC32 hash : 21F349BA
CRC32 hash (skip zero) : 75451314
AccurateRip v1 signature : 7E6540D2
AccurateRip v2 signature : 01DCB5AD
->Track not present in AccurateRip database.
Statistics
Read error : 0
Jitter error (maybe fixed) : 0
Retry sector count : 0
Damaged sector count : 0
Track 06
Filename : /Users/anch/Music/FLAC/James Finn Trio - 2005 - Plaza De Toros [FLAC]/06 - El Tercio De Vanderillas.flac
/Users/anch/Music/FLAC/James Finn Trio - 2005 - Plaza De Toros [MP3 320]/06 - El Tercio De Vanderillas.mp3
/Users/anch/Music/FLAC/James Finn Trio - 2005 - Plaza De Toros [MP3 V0]/06 - El Tercio De Vanderillas.mp3
Track gain : -5.03 dB
Peak : 1.000000
CRC32 hash (test run) : 993BF702
CRC32 hash : 993BF702
CRC32 hash (skip zero) : 51C1DA06
AccurateRip v1 signature : C0FA7D3B
AccurateRip v2 signature : 691D115F
->Track not present in AccurateRip database.
Statistics
Read error : 0
Jitter error (maybe fixed) : 0
Retry sector count : 0
Damaged sector count : 0
Track 07
Filename : /Users/anch/Music/FLAC/James Finn Trio - 2005 - Plaza De Toros [FLAC]/07 - El Tercio De Muleta.flac
/Users/anch/Music/FLAC/James Finn Trio - 2005 - Plaza De Toros [MP3 320]/07 - El Tercio De Muleta.mp3
/Users/anch/Music/FLAC/James Finn Trio - 2005 - Plaza De Toros [MP3 V0]/07 - El Tercio De Muleta.mp3
Track gain : -0.67 dB
Peak : 1.000000
CRC32 hash (test run) : 2E61A096
CRC32 hash : 2E61A096
CRC32 hash (skip zero) : 89221D2A
AccurateRip v1 signature : EBFAE459
AccurateRip v2 signature : C7F9BE9D
->Track not present in AccurateRip database.
Statistics
Read error : 0
Jitter error (maybe fixed) : 0
Retry sector count : 0
Damaged sector count : 0
Track 08
Filename : /Users/anch/Music/FLAC/James Finn Trio - 2005 - Plaza De Toros [FLAC]/08 - La Estecada.flac
/Users/anch/Music/FLAC/James Finn Trio - 2005 - Plaza De Toros [MP3 320]/08 - La Estecada.mp3
/Users/anch/Music/FLAC/James Finn Trio - 2005 - Plaza De Toros [MP3 V0]/08 - La Estecada.mp3
Track gain : -2.70 dB
Peak : 1.000000
CRC32 hash (test run) : 2CC5750C
CRC32 hash : 2CC5750C
CRC32 hash (skip zero) : BBC52E49
AccurateRip v1 signature : CE7C42B2
AccurateRip v2 signature : F9070B9B
->Track not present in AccurateRip database.
Statistics
Read error : 0
Jitter error (maybe fixed) : 0
Retry sector count : 0
Damaged sector count : 0
Track 09
Filename : /Users/anch/Music/FLAC/James Finn Trio - 2005 - Plaza De Toros [FLAC]/09 - Toro Bravo.flac
/Users/anch/Music/FLAC/James Finn Trio - 2005 - Plaza De Toros [MP3 320]/09 - Toro Bravo.mp3
/Users/anch/Music/FLAC/James Finn Trio - 2005 - Plaza De Toros [MP3 V0]/09 - Toro Bravo.mp3
Track gain : -0.63 dB
Peak : 1.000000
CRC32 hash (test run) : 79BE8525
CRC32 hash : 79BE8525
CRC32 hash (skip zero) : 6E07642F
AccurateRip v1 signature : 1D3BBB99
AccurateRip v2 signature : D8BFE5B6
->Track not present in AccurateRip database.
Statistics
Read error : 0
Jitter error (maybe fixed) : 0
Retry sector count : 0
Damaged sector count : 0
No errors occurred
End of status report
 
Содержание индексной карты *.cue
TITLE "Plaza De Toros"
PERFORMER "James Finn Trio"
REM GENRE "Free Jazz"
REM DATE "2005"
REM DISCID 840F0509
REM REPLAYGAIN_ALBUM_GAIN -2.96 dB
REM REPLAYGAIN_ALBUM_PEAK 1.000000
FILE "01 - Toreo De Capa.flac" WAVE
TRACK 01 AUDIO
TITLE "Toreo De Capa"
PERFORMER "James Finn Trio"
REM REPLAYGAIN_TRACK_GAIN -2.22 dB
REM REPLAYGAIN_TRACK_PEAK 1.000000
INDEX 01 00:00:00
FILE "02 - Plaza De Toros.flac" WAVE
TRACK 02 AUDIO
TITLE "Plaza De Toros"
PERFORMER "James Finn Trio"
REM REPLAYGAIN_TRACK_GAIN -3.40 dB
REM REPLAYGAIN_TRACK_PEAK 1.000000
INDEX 01 00:00:00
FILE "03 - The Phantom Bull Of Seville.flac" WAVE
TRACK 03 AUDIO
TITLE "The Phantom Bull Of Seville"
PERFORMER "James Finn Trio"
REM REPLAYGAIN_TRACK_GAIN -1.17 dB
REM REPLAYGAIN_TRACK_PEAK 1.000000
INDEX 01 00:00:00
FILE "04 - El Tercio De Varas.flac" WAVE
TRACK 04 AUDIO
TITLE "El Tercio De Varas"
PERFORMER "James Finn Trio"
REM REPLAYGAIN_TRACK_GAIN -3.13 dB
REM REPLAYGAIN_TRACK_PEAK 1.000000
INDEX 01 00:00:00
FILE "05 - Eyes Of Angelina.flac" WAVE
TRACK 05 AUDIO
TITLE "Eyes Of Angelina"
PERFORMER "James Finn Trio"
REM REPLAYGAIN_TRACK_GAIN -4.05 dB
REM REPLAYGAIN_TRACK_PEAK 1.000000
INDEX 01 00:00:00
FILE "06 - El Tercio De Vanderillas.flac" WAVE
TRACK 06 AUDIO
TITLE "El Tercio De Vanderillas"
PERFORMER "James Finn Trio"
REM REPLAYGAIN_TRACK_GAIN -5.03 dB
REM REPLAYGAIN_TRACK_PEAK 1.000000
INDEX 01 00:00:00
FILE "07 - El Tercio De Muleta.flac" WAVE
TRACK 07 AUDIO
TITLE "El Tercio De Muleta"
PERFORMER "James Finn Trio"
REM REPLAYGAIN_TRACK_GAIN -0.67 dB
REM REPLAYGAIN_TRACK_PEAK 1.000000
INDEX 01 00:00:00
FILE "08 - La Estecada.flac" WAVE
TRACK 08 AUDIO
TITLE "La Estecada"
PERFORMER "James Finn Trio"
REM REPLAYGAIN_TRACK_GAIN -2.70 dB
REM REPLAYGAIN_TRACK_PEAK 1.000000
INDEX 01 00:00:00
FILE "09 - Toro Bravo.flac" WAVE
TRACK 09 AUDIO
TITLE "Toro Bravo"
PERFORMER "James Finn Trio"
REM REPLAYGAIN_TRACK_GAIN -0.63 dB
REM REPLAYGAIN_TRACK_PEAK 1.000000
INDEX 01 00:00:00

 
Об альбоме (сборнике)
Review by Scott Yanow
The influences of Archie Shepp and Albert Ayler are apparent in tenor saxophonist James Finn's playing, although he has a mellower tone and a slightly less violent style. On Plaza de Toros, the nine selections are meant as musical depiction of a bullfight, but one has to really use his imagination to find any Spanish influences or to imagine the fight. Beyond that plot, the music is stirring, with superior interplay between the three players. Bassist Dominic Duval (a brilliant soloist) and drummer/percussionist Warren Smith are both superb players and they react immediately, if often in an abstract manner, to Finn's adventurous flights. At the time of this recording, James Finn was an important new voice on the tenor sax, and his projects are certainly well worth following for those listeners who enjoy "out" players.
По всем вопросам пишите личное сообщение пользователю M0p94ok.
07:33
153
Нет комментариев. Ваш будет первым!