Вы используете незарегистрированную версию компонента "Вкладки"!

Поиск

(Free Improvisation) [CD] Fabio Martini - Intrio (Tito Mangialajo Rantzer, Carlo Virzi) - Practicality - 2004, FLAC (image+.cue), lossless

(Free Improvisation) [CD] Fabio Martini - Intrio (Tito Mangialajo Rantzer, Carlo Virzi) - Practicality - 2004, FLAC (image+.cue), lossless
Треклист:
Fabio Martini - Intrio / Practicality
Жанр: Free Improvisation
Носитель: CD
Страна-производитель диска (релиза): UK
Год издания: 2004
Издатель (лейбл): Leo Records
Номер по каталогу: CD LR 392
Аудиокодек: FLAC (*.flac)
Тип рипа: image+.cue
Битрейт аудио: lossless
Продолжительность: 60:46
Источник (релизер): cd
Наличие сканов в содержимом раздачи: нет
Треклист:
1 Observation 4:39
2 Persistence 2:19
3 Practicality I 4:45
4 Will 3:44
5 Practicality II 2:24
6 Tact 3:31
7 Center Of Vitality 4:13
8 Practicality III 3:17
9 Self-Confidence 3:50
10 Force 5:45
11 Energy 4:06
12 Courage 1:54
13 Muscular Coordination 5:59
14 Commerce 4:47
15 Firmness 4:33
 
Лог создания рипа
Exact Audio Copy V1.0 beta 3 from 29. August 2011
EAC extraction logfile from 19. December 2014, 21:25
Fabio Martini Intrio / Practicality
Used drive : Optiarc DVD RW AD-7170A Adapter: 0 ID: 0
Read mode : Secure
Utilize accurate stream : Yes
Defeat audio cache : Yes
Make use of C2 pointers : No
Read offset correction : 48
Overread into Lead-In and Lead-Out : No
Fill up missing offset samples with silence : Yes
Delete leading and trailing silent blocks : No
Null samples used in CRC calculations : Yes
Used interface : Native Win32 interface for Win NT & 2000
Used output format : User Defined Encoder
Selected bitrate : 320 kBit/s
Quality : High
Add ID3 tag : No
Command line compressor : C:\Program Files\Exact Audio Copy\Flac\flac.exe
Additional command line options : -V -8 -T "Date=%year%" -T "Genre=%genre%" %source%
TOC of the extracted CD
Track | Start | Length | Start sector | End sector
---------------------------------------------------------
1 | 0:00.00 | 4:43.50 | 0 | 21274
2 | 4:43.50 | 2:22.10 | 21275 | 31934
3 | 7:05.60 | 4:49.00 | 31935 | 53609
4 | 11:54.60 | 3:47.00 | 53610 | 70634
5 | 15:41.60 | 2:29.00 | 70635 | 81809
6 | 18:10.60 | 3:35.00 | 81810 | 97934
7 | 21:45.60 | 4:17.00 | 97935 | 117209
8 | 26:02.60 | 3:21.25 | 117210 | 132309
9 | 29:24.10 | 3:55.00 | 132310 | 149934
10 | 33:19.10 | 5:50.00 | 149935 | 176184
11 | 39:09.10 | 4:09.50 | 176185 | 194909
12 | 43:18.60 | 1:58.00 | 194910 | 203759
13 | 45:16.60 | 6:04.00 | 203760 | 231059
14 | 51:20.60 | 4:52.00 | 231060 | 252959
15 | 56:12.60 | 4:33.44 | 252960 | 273478
Range status and errors
Selected range
Filename C:\Documents and Settings\All Users\Fabio Martini Intrio - Practicality.wav
Peak level 98.8 %
Extraction speed 1.5 X
Range quality 99.8 %
Test CRC 2F5C1E8C
Copy CRC 2F5C1E8C
Copy OK
No errors occurred
End of status report
==== Log checksum F675173FCA408C51BCFC1178D3E954B3CD87861DAEA7B8C8787E2C1DB352A634 ====
 
Содержание индексной карты (.CUE)
REM GENRE Jazz
REM DATE 2004
REM DISCID BD0E3E0F
REM COMMENT "ExactAudioCopy v1.0b3"
PERFORMER "Fabio Martini Intrio"
TITLE "Practicality"
FILE "Fabio Martini Intrio - Practicality.flac" WAVE
TRACK 01 AUDIO
TITLE "Observation"
PERFORMER "Fabio Martini Intrio"
ISRC 000000000000
FLAGS DCP
INDEX 01 00:00:00
TRACK 02 AUDIO
TITLE "Persistence"
PERFORMER "Fabio Martini Intrio"
ISRC 000000000000
FLAGS DCP
INDEX 00 04:40:23
INDEX 01 04:43:50
TRACK 03 AUDIO
TITLE "Practicality I"
PERFORMER "Fabio Martini Intrio"
ISRC 000000000000
FLAGS DCP
INDEX 00 07:03:15
INDEX 01 07:05:60
TRACK 04 AUDIO
TITLE "Will"
PERFORMER "Fabio Martini Intrio"
ISRC 000000000000
FLAGS DCP
INDEX 00 11:51:68
INDEX 01 11:54:60
TRACK 05 AUDIO
TITLE "Practicality II"
PERFORMER "Fabio Martini Intrio"
ISRC 000000000000
FLAGS DCP
INDEX 00 15:39:22
INDEX 01 15:41:60
TRACK 06 AUDIO
TITLE "Tact"
PERFORMER "Fabio Martini Intrio"
ISRC 000000000000
FLAGS DCP
INDEX 00 18:06:49
INDEX 01 18:10:60
TRACK 07 AUDIO
TITLE "Center Of Vitality"
PERFORMER "Fabio Martini Intrio"
ISRC 000000000000
FLAGS DCP
INDEX 00 21:42:70
INDEX 01 21:45:60
TRACK 08 AUDIO
TITLE "Practicality III"
PERFORMER "Fabio Martini Intrio"
ISRC 000000000000
FLAGS DCP
INDEX 00 25:59:53
INDEX 01 26:02:60
TRACK 09 AUDIO
TITLE "Self-Confidence"
PERFORMER "Fabio Martini Intrio"
ISRC 000000000000
FLAGS DCP
INDEX 00 29:20:55
INDEX 01 29:24:10
TRACK 10 AUDIO
TITLE "Force"
PERFORMER "Fabio Martini Intrio"
ISRC 000000000000
FLAGS DCP
INDEX 00 33:14:68
INDEX 01 33:19:10
TRACK 11 AUDIO
TITLE "Energy"
PERFORMER "Fabio Martini Intrio"
ISRC 000000000000
FLAGS DCP
INDEX 00 39:05:25
INDEX 01 39:09:10
TRACK 12 AUDIO
TITLE "Courage"
PERFORMER "Fabio Martini Intrio"
ISRC 000000000000
FLAGS DCP
INDEX 00 43:15:60
INDEX 01 43:18:60
TRACK 13 AUDIO
TITLE "Muscular Coordination"
PERFORMER "Fabio Martini Intrio"
ISRC 000000000000
FLAGS DCP
INDEX 00 45:13:47
INDEX 01 45:16:60
TRACK 14 AUDIO
TITLE "Commerce"
PERFORMER "Fabio Martini Intrio"
ISRC 000000000000
FLAGS DCP
INDEX 00 51:16:60
INDEX 01 51:20:60
TRACK 15 AUDIO
TITLE "Firmness"
PERFORMER "Fabio Martini Intrio"
ISRC 000000000000
FLAGS DCP
INDEX 00 56:09:14
INDEX 01 56:12:60
Доп. информация: Recorded during 2002 at mu-rec studio, Milano
 
Состав
The first CD by Fabio Martini on Leo Records (LAB 045 - Clangori) was given five stars by the Down Beat writer John Corbett. Since then Fabio has been called "Italy's best kept secret" (Richard Cochrane) and a "deep-thinking spiritualist" (Cadence). Fabio Martini plays thought-provoking, mysterious music which requires attention. It may not be easy to enter his music, but once in you will find yourself being sucked deeper and deeper into an ominous world of darkness, until you are totally captivated by his pensive, brooding moods. Intellectually and spiritually highly rewarding.
Alto Clarinet, Clarinet [Bb] – Fabio Martini
Double Bass – Tito Mangialajo Rantzer
Drums – Carlo Virzi
По всем вопросам пишите личное сообщение пользователю M0p94ok.
07:34
153
Нет комментариев. Ваш будет первым!