Вы используете незарегистрированную версию компонента "Вкладки"!

Поиск

(Free Improvisation) [CD] 1000 Jan Klare / Wilbert de Joode / Michael Vatcher / Bart Maris - Played - 2009, FLAC (tracks+.cue), lossless

(Free Improvisation) [CD] 1000 Jan Klare / Wilbert de Joode / Michael Vatcher / Bart Maris - Played - 2009, FLAC (tracks+.cue), lossless
Треклист:
1000 Jan Klare / Wilbert de Joode / Michael Vatcher / Bart Maris - Played
Жанр: Free Improvisation
Носитель: CD
Страна-производитель диска (релиза): UK
Год издания: 2009
Издатель (лейбл): Leo Records
Номер по каталогу: CD LR 539
Аудиокодек: FLAC (*.flac)
Тип рипа: tracks+.cue
Битрейт аудио: lossless
Продолжительность: 48:10
Источник (релизер): cd
Наличие сканов в содержимом раздачи: нет
Треклист:
1 City Forest 5:56
2 Panorama (Canzonette) 5:47
3 Museum 4:00
4 Pavement 2:49
5 Fence 3:22
6 Skywalk 6:47
7 Park 5:35
8 Fountain 3:44
9 Warden 5:38
10 Pedestrian 4:26
 
Лог создания рипа
Exact Audio Copy V1.0 beta 3 from 29. August 2011
EAC extraction logfile from 18. December 2014, 11:01
Klare, de Joode, Vatcher, Maris / Played
Used drive : ASUS DRW-24F1ST a Adapter: 0 ID: 0
Read mode : Secure
Utilize accurate stream : Yes
Defeat audio cache : Yes
Make use of C2 pointers : No
Read offset correction : 6
Overread into Lead-In and Lead-Out : No
Fill up missing offset samples with silence : Yes
Delete leading and trailing silent blocks : No
Null samples used in CRC calculations : Yes
Used interface : Native Win32 interface for Win NT & 2000
Gap handling : Appended to previous track
Used output format : User Defined Encoder
Selected bitrate : 320 kBit/s
Quality : High
Add ID3 tag : No
Command line compressor : D:\Programs\Exact Audio Copy\Flac\flac.exe
Additional command line options : -V -8 -T "Genre=%genre%" -T "Artist=%artist%" -T "Title=%title%" -T "Album=%albumtitle%" -T "Date=%year%" -T "Tracknumber=%tracknr%" -T "Comment=%comment%" %source%
TOC of the extracted CD
Track | Start | Length | Start sector | End sector
---------------------------------------------------------
1 | 0:00.00 | 5:57.00 | 0 | 26774
2 | 5:57.00 | 5:48.00 | 26775 | 52874
3 | 11:45.00 | 4:00.29 | 52875 | 70903
4 | 15:45.29 | 2:49.08 | 70904 | 83586
5 | 18:34.37 | 3:22.40 | 83587 | 98776
6 | 21:57.02 | 6:47.54 | 98777 | 129355
7 | 28:44.56 | 5:35.23 | 129356 | 154503
8 | 34:20.04 | 3:44.22 | 154504 | 171325
9 | 38:04.26 | 5:38.71 | 171326 | 196746
10 | 43:43.22 | 4:26.57 | 196747 | 216753
Track 1
Filename D:\EAC\01 City Forest.wav
Pre-gap length 0:00:02.00
Peak level 98.9 %
Extraction speed 1.8 X
Track quality 100.0 %
Test CRC 8720DDC5
Copy CRC 8720DDC5
Copy OK
Track 2
Filename D:\EAC\02 Panorama (Canzonette).wav
Pre-gap length 0:00:05.00
Peak level 98.9 %
Extraction speed 2.1 X
Track quality 100.0 %
Test CRC 6BCFC033
Copy CRC 6BCFC033
Copy OK
Track 3
Filename D:\EAC\03 Museum.wav
Pre-gap length 0:00:04.74
Peak level 98.8 %
Extraction speed 2.2 X
Track quality 100.0 %
Test CRC E1A7A670
Copy CRC E1A7A670
Copy OK
Track 4
Filename D:\EAC\04 Pavement.wav
Pre-gap length 0:00:05.00
Peak level 98.8 %
Extraction speed 2.2 X
Track quality 100.0 %
Test CRC E6C2E83C
Copy CRC E6C2E83C
Copy OK
Track 5
Filename D:\EAC\05 Fence.wav
Pre-gap length 0:00:05.00
Peak level 98.9 %
Extraction speed 2.1 X
Track quality 99.9 %
Test CRC 805A5C66
Copy CRC 805A5C66
Copy OK
Track 6
Filename D:\EAC\06 Skywalk.wav
Pre-gap length 0:00:05.00
Peak level 98.8 %
Extraction speed 2.8 X
Track quality 100.0 %
Test CRC 2257889A
Copy CRC 2257889A
Copy OK
Track 7
Filename D:\EAC\07 Park.wav
Pre-gap length 0:00:05.00
Peak level 98.8 %
Extraction speed 2.7 X
Track quality 99.9 %
Test CRC 860727E2
Copy CRC 860727E2
Copy OK
Track 8
Filename D:\EAC\08 Fountain.wav
Pre-gap length 0:00:05.00
Peak level 98.8 %
Extraction speed 2.9 X
Track quality 100.0 %
Test CRC C34A39C9
Copy CRC C34A39C9
Copy OK
Track 9
Filename D:\EAC\09 Warden.wav
Pre-gap length 0:00:05.00
Peak level 98.9 %
Extraction speed 2.9 X
Track quality 99.9 %
Test CRC A54E33D0
Copy CRC A54E33D0
Copy OK
Track 10
Filename D:\EAC\10 Pedestrian.wav
Pre-gap length 0:00:05.00
Peak level 98.8 %
Extraction speed 3.3 X
Track quality 100.0 %
Test CRC DD815FD6
Copy CRC DD815FD6
Copy OK
No errors occurred
End of status report
==== Log checksum C9318DA69DF2DE7A2401F5C9465A3DA2C98321FA4370F37617B9A0F5F2514D92 ====
 
Содержание индексной карты (.CUE)
REM GENRE Jazz
REM DATE 2009
REM DISCID 870B4A0A
REM COMMENT "ExactAudioCopy v1.0b3"
PERFORMER "Klare, de Joode, Vatcher, Maris"
TITLE "Played"
FILE "01 City Forest.wav" WAVE
TRACK 01 AUDIO
TITLE "City Forest"
PERFORMER "Klare, de Joode, Vatcher, Maris"
ISRC GBJZD0900001
INDEX 01 00:00:00
TRACK 02 AUDIO
TITLE "Panorama (Canzonette)"
PERFORMER "Klare, de Joode, Vatcher, Maris"
ISRC GBJZD0900002
INDEX 00 05:52:00
FILE "02 Panorama (Canzonette).wav" WAVE
INDEX 01 00:00:00
TRACK 03 AUDIO
TITLE "Museum"
PERFORMER "Klare, de Joode, Vatcher, Maris"
ISRC GBJZD0900003
INDEX 00 05:43:01
FILE "03 Museum.wav" WAVE
INDEX 01 00:00:00
TRACK 04 AUDIO
TITLE "Pavement"
PERFORMER "Klare, de Joode, Vatcher, Maris"
ISRC GBJZD0900004
INDEX 00 03:55:29
FILE "04 Pavement.wav" WAVE
INDEX 01 00:00:00
TRACK 05 AUDIO
TITLE "Fence"
PERFORMER "Klare, de Joode, Vatcher, Maris"
ISRC GBJZD0900005
INDEX 00 02:44:08
FILE "05 Fence.wav" WAVE
INDEX 01 00:00:00
TRACK 06 AUDIO
TITLE "Skywalk"
PERFORMER "Klare, de Joode, Vatcher, Maris"
ISRC GBJZD0900006
INDEX 00 03:17:40
FILE "06 Skywalk.wav" WAVE
INDEX 01 00:00:00
TRACK 07 AUDIO
TITLE "Park"
PERFORMER "Klare, de Joode, Vatcher, Maris"
ISRC GBJZD0900007
INDEX 00 06:42:54
FILE "07 Park.wav" WAVE
INDEX 01 00:00:00
TRACK 08 AUDIO
TITLE "Fountain"
PERFORMER "Klare, de Joode, Vatcher, Maris"
ISRC GBJZD0900008
INDEX 00 05:30:23
FILE "08 Fountain.wav" WAVE
INDEX 01 00:00:00
TRACK 09 AUDIO
TITLE "Warden"
PERFORMER "Klare, de Joode, Vatcher, Maris"
ISRC GBJZD0900009
INDEX 00 03:39:22
FILE "09 Warden.wav" WAVE
INDEX 01 00:00:00
TRACK 10 AUDIO
TITLE "Pedestrian"
PERFORMER "Klare, de Joode, Vatcher, Maris"
ISRC GBJZD0900010
INDEX 00 05:33:71
FILE "10 Pedestrian.wav" WAVE
INDEX 01 00:00:00
 
Об альбоме (сборнике)
Quartet 1000 brings together four highly acclaimed improvisers from the Netherlands (Wilbert de Joode - bass), USA (Michael Vatcher - drums), Germany (Jan Klare - sax) and Belgium (Bart Maris - trumpet) who played with all the biggest names in the improvised music. Their approach is adventurous, virtuoso and surprising at all times. The most of band's repertoire is composed by the leader Jan Klare whose pieces are characterised by strong structures while the instruments constantly shift between leading and accompanying roles.
 
Состав
Bass – Wilbert de Joode
Drums – Michael Vatcher
Music By – Bart Maris (tracks: 1, 3, 7, 9), Jan Klare, Michael Vatcher (tracks: 1, 3, 7, 9), Wilbert de Joode (tracks: 1, 3, 7, 9)
Reeds – Jan Klare
Trumpet – Bart Maris
По всем вопросам пишите личное сообщение пользователю M0p94ok.
07:35
163
Нет комментариев. Ваш будет первым!