Вы используете незарегистрированную версию компонента "Вкладки"!

Поиск

(Free jazz, Improvisation) Trio X [Joe McPhee, Dominic Duval, Jay Rosen]- Live On Tour 2008 (5 CD's Box) - 2010, FLAC (tracks+.cue), lossless

Треклист:
Trio X / Live On Tour 2008 ( 5 CD's Box )
Жанр: Free jazz, Improvisation
Страна-производитель диска: USA
Год издания диска: 2010
Издатель (лейбл): CIMPoL
Номер по каталогу: 5015-5019
Аудиокодек: FLAC (*.flac)
Тип рипа: tracks+.cue
Битрейт аудио: lossless
Продолжительность: 63:42+68:20+57:26+73:31+65:59
Источник (релизер): Tammas
Наличие сканов в содержимом раздачи: да
Треклист:
 
CD 1: Colgate University
CD 1: Colgate University
1. Colgate Afternoon
2. Spring Was Here
3. A Secret Love
4. Take A Walk Through The Woods
5. Motherless Child
 
CD 2: Ann Arbor, MI
CD 2: Ann Arbor, MI
1. The Ebb Of Sorrow
2. Brownskin Funk
3. Motherless Child
4. Brass Blast
5. Rainy Reference
6. Secret Love, The Sequel
 
CD 3: Champaign, IL
CD 3: Champaign, IL
1. Krannert Welcome
2. Midwest Mallets
3. Prairie Fire
4. Brownskin Arts
5. Old Man River
6. You Need You Need Not
7. Brown Skin Girl
8. Secret Love
 
CD 4: Waukee and Davenport, IA
CD 4: Waukee and Davenport, IA
1. Waukee Hello Naima
2. People Get Ready,Change
3. Old River Man
4. 4 - silence, change of venue
5. PolyRhythm Valentine
6. Davenport Brownskin
7. Going Home
 
CD 5: University of Bowling Green (OH) and Hamilton College (NY)
CD 5: University of Bowling Green (OH) and Hamilton College (NY)
1. The River, Old Man
2. Pig Knuckles & Rice
3. For Max & Clifford
4. Traffic
5. Secret Love Secret
6. silence
7. Brownskin Power
8. Joe's Song For The Child
9. Fragmonks
 
Лог создания рипа

 
cd1
EAC extraction logfile from 8. October 2010, 22:51 for CD
Trio X / Live On Tour 2008
Used drive : HP DVD Writer 1170d Adapter: 1 ID: 0
Read mode : Secure with NO C2, accurate stream, disable cache
Read offset correction : 6
Overread into Lead-In and Lead-Out : No
Used output format : C:\Eac\Codecs\flac.exe (User Defined Encoder)
320 kBit/s
Additional command line options : -8 -V -T "artist=%a" -T "title=%t" -T "album=%g" -T "date=%y" -T "tracknumber=%n" -T "genre=%m" -T "comment=EAC Flac 1.1.2 -8" %s
Other options :
Fill up missing offset samples with silence : Yes
Delete leading and trailing silent blocks : No
Installed external ASPI interface
Track 1
Filename C:\Documents and Settings\mcphee\CD 1\01 - Colgate Afternoon.wav
Pre-gap length 0:00:02.00
Peak level 62.7 %
Track quality 100.0 %
Test CRC 45B49FED
Copy CRC 45B49FED
Copy OK
Track 2
Filename C:\Documents and Settings\mcphee\CD 1\02 - Spring Was Here.wav
Peak level 70.0 %
Track quality 99.9 %
Test CRC D3631484
Copy CRC D3631484
Copy OK
Track 3
Filename C:\Documents and Settings\mcphee\CD 1\03 - A Secret Love.wav
Pre-gap length 0:00:00.01
Peak level 51.2 %
Track quality 100.0 %
Test CRC 7027B549
Copy CRC 7027B549
Copy OK
Track 4
Filename C:\Documents and Settings\mcphee\CD 1\04 - Take A Walk Through The Woods.wav
Pre-gap length 0:00:00.01
Peak level 28.5 %
Track quality 100.0 %
Test CRC C88E9128
Copy CRC C88E9128
Copy OK
Track 5
Filename C:\Documents and Settings\mcphee\CD 1\05 - Motherless Child.wav
Pre-gap length 0:00:00.01
Peak level 28.6 %
Track quality 99.9 %
Test CRC 6FA2F241
Copy CRC 6FA2F241
Copy OK
No errors occured
End of status report
 
cd2
EAC extraction logfile from 9. October 2010, 0:56 for CD
Trio X / Live On Tour 2008 CD2
Used drive : HP DVD Writer 1170d Adapter: 1 ID: 0
Read mode : Secure with NO C2, accurate stream, disable cache
Read offset correction : 6
Overread into Lead-In and Lead-Out : No
Used output format : C:\Eac\Codecs\flac.exe (User Defined Encoder)
320 kBit/s
Additional command line options : -8 -V -T "artist=%a" -T "title=%t" -T "album=%g" -T "date=%y" -T "tracknumber=%n" -T "genre=%m" -T "comment=EAC Flac 1.1.2 -8" %s
Other options :
Fill up missing offset samples with silence : Yes
Delete leading and trailing silent blocks : No
Installed external ASPI interface
Track 1
Filename C:\Documents and Settings\mcphee\CD 2\01 - The Ebb Of Sorrow.wav
Pre-gap length 0:00:02.00
Peak level 88.3 %
Track quality 100.0 %
Test CRC 3ED1ADBB
Copy CRC 3ED1ADBB
Copy OK
Track 2
Filename C:\Documents and Settings\mcphee\CD 2\02 - Brownskin Funk.wav
Peak level 84.9 %
Track quality 99.9 %
Test CRC C3D4C143
Copy CRC C3D4C143
Copy OK
Track 3
Filename C:\Documents and Settings\mcphee\CD 2\03 - Motherless Child.wav
Peak level 92.8 %
Track quality 100.0 %
Test CRC 504C761D
Copy CRC 504C761D
Copy OK
Track 4
Filename C:\Documents and Settings\mcphee\CD 2\04 - Brass Blast.wav
Peak level 56.8 %
Track quality 100.0 %
Test CRC 40D671E6
Copy CRC 40D671E6
Copy OK
Track 5
Filename C:\Documents and Settings\mcphee\CD 2\05 - Rainy Reference.wav
Peak level 69.6 %
Track quality 99.9 %
Test CRC 0A2DBA39
Copy CRC 0A2DBA39
Copy OK
Track 6
Filename C:\Documents and Settings\mcphee\CD 2\06 - Secret Love, The Sequel.wav
Peak level 60.6 %
Track quality 99.7 %
Test CRC BEC4EDBE
Copy CRC BEC4EDBE
Copy OK
No errors occured
End of status report
 
cd3
EAC extraction logfile from 9. October 2010, 10:53 for CD
Trio X / Live On Tour 2008 CD3
Used drive : HP DVD Writer 1170d Adapter: 1 ID: 1
Read mode : Secure with NO C2, accurate stream, disable cache
Read offset correction : 6
Overread into Lead-In and Lead-Out : No
Used output format : C:\Eac\Codecs\flac.exe (User Defined Encoder)
320 kBit/s
Additional command line options : -8 -V -T "artist=%a" -T "title=%t" -T "album=%g" -T "date=%y" -T "tracknumber=%n" -T "genre=%m" -T "comment=EAC Flac 1.1.2 -8" %s
Other options :
Fill up missing offset samples with silence : Yes
Delete leading and trailing silent blocks : No
Installed external ASPI interface
Track 1
Filename C:\Documents and Settings\mcphee\CD 3\01 - Krannert Welcome.wav
Pre-gap length 0:00:02.00
Peak level 36.4 %
Track quality 100.0 %
Test CRC 63E126AB
Copy CRC 63E126AB
Copy OK
Track 2
Filename C:\Documents and Settings\mcphee\CD 3\02 - Midwest Mallets.wav
Peak level 99.4 %
Track quality 100.0 %
Test CRC 5AFF575D
Copy CRC 5AFF575D
Copy OK
Track 3
Filename C:\Documents and Settings\mcphee\CD 3\03 - Prairie Fire.wav
Peak level 100.0 %
Track quality 100.0 %
Test CRC 92D19F8A
Copy CRC 92D19F8A
Copy OK
Track 4
Filename C:\Documents and Settings\mcphee\CD 3\04 - Brownskin Arts.wav
Peak level 36.0 %
Track quality 100.0 %
Test CRC C0670693
Copy CRC C0670693
Copy OK
Track 5
Filename C:\Documents and Settings\mcphee\CD 3\05 - Old Man River.wav
Peak level 25.0 %
Track quality 100.0 %
Test CRC 82AB2BAA
Copy CRC 82AB2BAA
Copy OK
Track 6
Filename C:\Documents and Settings\mcphee\CD 3\06 - You Need You Need Not.wav
Peak level 47.0 %
Track quality 100.0 %
Test CRC C641E373
Copy CRC C641E373
Copy OK
Track 7
Filename C:\Documents and Settings\mcphee\CD 3\07 - Brown Skin Girl.wav
Peak level 8.4 %
Track quality 100.0 %
Test CRC 0D1163A0
Copy CRC 0D1163A0
Copy OK
Track 8
Filename C:\Documents and Settings\mcphee\CD 3\08 - Secret Love.wav
Peak level 30.1 %
Track quality 100.0 %
Test CRC E6058714
Copy CRC E6058714
Copy OK
No errors occured
End of status report
 
cd4
EAC extraction logfile from 9. October 2010, 16:06 for CD
Trio X / Live On Tour 2008 CD4
Used drive : HP DVD Writer 1170d Adapter: 1 ID: 0
Read mode : Secure with NO C2, accurate stream, disable cache
Read offset correction : 6
Overread into Lead-In and Lead-Out : No
Used output format : C:\Eac\Codecs\flac.exe (User Defined Encoder)
320 kBit/s
Additional command line options : -8 -V -T "artist=%a" -T "title=%t" -T "album=%g" -T "date=%y" -T "tracknumber=%n" -T "genre=%m" -T "comment=EAC Flac 1.1.2 -8" %s
Other options :
Fill up missing offset samples with silence : Yes
Delete leading and trailing silent blocks : No
Installed external ASPI interface
Track 1
Filename C:\Documents and Settings\mcphee\CD 4\01 - Waukee Hello Naima.wav
Pre-gap length 0:00:02.00
Peak level 99.7 %
Track quality 100.0 %
Test CRC 5ED7EC6F
Copy CRC 5ED7EC6F
Copy OK
Track 2
Filename C:\Documents and Settings\mcphee\CD 4\02 - People Get Ready,Change.wav
Peak level 93.0 %
Track quality 99.9 %
Test CRC BB16827C
Copy CRC BB16827C
Copy OK
Track 3
Filename C:\Documents and Settings\mcphee\CD 4\03 - Old River Man.wav
Peak level 94.2 %
Track quality 100.0 %
Test CRC 53D8F9B0
Copy CRC 53D8F9B0
Copy OK
Track 4
Filename C:\Documents and Settings\mcphee\CD 4\04 - silence, change of venue.wav
Pre-gap length 0:00:02.77
Peak level 0.0 %
Track quality 99.6 %
Test CRC 5B14252B
Copy CRC 5B14252B
Copy OK
Track 5
Filename C:\Documents and Settings\mcphee\CD 4\05 - PolyRhythm Valentine.wav
Pre-gap length 0:00:02.77
Peak level 83.9 %
Track quality 100.0 %
Test CRC CD1E02D5
Copy CRC CD1E02D5
Copy OK
Track 6
Filename C:\Documents and Settings\mcphee\CD 4\06 - Davenport Brownskin.wav
Peak level 88.8 %
Track quality 100.0 %
Test CRC 99159EC8
Copy CRC 99159EC8
Copy OK
Track 7
Filename C:\Documents and Settings\mcphee\CD 4\07 - Going Home.wav
Peak level 49.1 %
Track quality 100.0 %
Test CRC 7769B30F
Copy CRC 7769B30F
Copy OK
No errors occured
End of status report
 
cd5
EAC extraction logfile from 9. October 2010, 19:01 for CD
Trio X / Live On Tour 2008 CD5
Used drive : HP DVD Writer 1170d Adapter: 1 ID: 0
Read mode : Secure with NO C2, accurate stream, disable cache
Read offset correction : 6
Overread into Lead-In and Lead-Out : No
Used output format : C:\Eac\Codecs\flac.exe (User Defined Encoder)
320 kBit/s
Additional command line options : -8 -V -T "artist=%a" -T "title=%t" -T "album=%g" -T "date=%y" -T "tracknumber=%n" -T "genre=%m" -T "comment=EAC Flac 1.1.2 -8" %s
Other options :
Fill up missing offset samples with silence : Yes
Delete leading and trailing silent blocks : No
Installed external ASPI interface
Track 1
Filename C:\Documents and Settings\Trio X - Live On Tour 2008 (2010) [FLAC]\CD 5\01 - The River, Old Man.wav
Pre-gap length 0:00:02.00
Peak level 58.8 %
Track quality 100.0 %
Test CRC 094C4563
Copy CRC 094C4563
Copy OK
Track 2
Filename C:\Documents and Settings\Trio X - Live On Tour 2008 (2010) [FLAC]\CD 5\02 - Pig Knuckles & Rice.wav
Pre-gap length 0:00:02.77
Peak level 100.0 %
Track quality 100.0 %
Test CRC B02ACE55
Copy CRC B02ACE55
Copy OK
Track 3
Filename C:\Documents and Settings\Trio X - Live On Tour 2008 (2010) [FLAC]\CD 5\03 - For Max & Clifford.wav
Pre-gap length 0:00:02.77
Peak level 100.0 %
Track quality 100.0 %
Test CRC 064C6C2F
Copy CRC 064C6C2F
Copy OK
Track 4
Filename C:\Documents and Settings\Trio X - Live On Tour 2008 (2010) [FLAC]\CD 5\04 - Traffic.wav
Pre-gap length 0:00:02.77
Peak level 87.8 %
Track quality 100.0 %
Test CRC 2B7D6F3A
Copy CRC 2B7D6F3A
Copy OK
Track 5
Filename C:\Documents and Settings\Trio X - Live On Tour 2008 (2010) [FLAC]\CD 5\05 - Secret Love Secret.wav
Pre-gap length 0:00:02.77
Peak level 31.2 %
Track quality 100.0 %
Test CRC A4C9DC74
Copy CRC A4C9DC74
Copy OK
Track 6
Filename C:\Documents and Settings\Trio X - Live On Tour 2008 (2010) [FLAC]\CD 5\06 - silence, change of venue.wav
Pre-gap length 0:00:02.77
Peak level 0.0 %
Track quality 99.6 %
Test CRC 5B14252B
Copy CRC 5B14252B
Copy OK
Track 7
Filename C:\Documents and Settings\Trio X - Live On Tour 2008 (2010) [FLAC]\CD 5\07 - Brownskin Power.wav
Pre-gap length 0:00:02.77
Peak level 96.9 %
Track quality 100.0 %
Test CRC 53CCB825
Copy CRC 53CCB825
Copy OK
Track 8
Filename C:\Documents and Settings\Trio X - Live On Tour 2008 (2010) [FLAC]\CD 5\08 - Joe's Song For The Child.wav
Pre-gap length 0:00:02.77
Peak level 72.3 %
Track quality 99.9 %
Test CRC 4C15C0A5
Copy CRC 4C15C0A5
Copy OK
Track 9
Filename C:\Documents and Settings\Trio X - Live On Tour 2008 (2010) [FLAC]\CD 5\09 - Fragmonks.wav
Peak level 69.0 %
Track quality 100.0 %
Test CRC 3F641185
Copy CRC 3F641185
Copy OK
No errors occured
End of status report
 
Содержание индексной карты (.CUE)

 
cd1
REM DISCID 3D0EED05
REM COMMENT "ExactAudioCopy v0.95b4"
CATALOG 0786497577323
PERFORMER "Trio X"
TITLE "Live On Tour 2008"
FILE "01 - Colgate Afternoon.wav" WAVE
TRACK 01 AUDIO
TITLE "Colgate Afternoon"
PERFORMER "Trio X"
ISRC H1iCK0900107
INDEX 01 00:00:00
FILE "02 - Spring Was Here.wav" WAVE
TRACK 02 AUDIO
TITLE "Spring Was Here"
PERFORMER "Trio X"
ISRC H1iCK0900107
INDEX 01 00:00:00
TRACK 03 AUDIO
TITLE "A Secret Love"
PERFORMER "Trio X"
ISRC H1iCK0900109
INDEX 00 12:39:29
FILE "03 - A Secret Love.wav" WAVE
INDEX 01 00:00:00
TRACK 04 AUDIO
TITLE "Take A Walk Through The Woods"
PERFORMER "Trio X"
ISRC H1iCK0900110
INDEX 00 08:47:61
FILE "04 - Take A Walk Through The Woods.wav" WAVE
INDEX 01 00:00:00
TRACK 05 AUDIO
TITLE "Motherless Child"
PERFORMER "Trio X"
ISRC H1iCK0900111
INDEX 00 07:30:52
FILE "05 - Motherless Child.wav" WAVE
INDEX 01 00:00:00
 
cd2
REM DISCID 43100306
REM COMMENT "ExactAudioCopy v0.95b4"
CATALOG 0786497577422
PERFORMER "Trio X"
TITLE "Live On Tour 2008 CD2"
FILE "01 - The Ebb Of Sorrow.wav" WAVE
TRACK 01 AUDIO
TITLE "The Ebb Of Sorrow"
PERFORMER "Trio X"
ISRC H1iCK0900112
INDEX 01 00:00:00
FILE "02 - Brownskin Funk.wav" WAVE
TRACK 02 AUDIO
TITLE "Brownskin Funk"
PERFORMER "Trio X"
ISRC H1iCK0900113
INDEX 01 00:00:00
FILE "03 - Motherless Child.wav" WAVE
TRACK 03 AUDIO
TITLE "Motherless Child"
PERFORMER "Trio X"
ISRC H1iCK0900114
INDEX 01 00:00:00
FILE "04 - Brass Blast.wav" WAVE
TRACK 04 AUDIO
TITLE "Brass Blast"
PERFORMER "Trio X"
ISRC H1iCK0900115
INDEX 01 00:00:00
FILE "05 - Rainy Reference.wav" WAVE
TRACK 05 AUDIO
TITLE "Rainy Reference"
PERFORMER "Trio X"
ISRC H1iCK0900116
INDEX 01 00:00:00
FILE "06 - Secret Love, The Sequel.wav" WAVE
TRACK 06 AUDIO
TITLE "Secret Love, The Sequel"
PERFORMER "Trio X"
ISRC H1iCK0900117
INDEX 01 00:00:00
 
cd3
REM DISCID 680D7608
REM COMMENT "ExactAudioCopy v0.95b4"
CATALOG 0786497577521
PERFORMER "Trio X"
TITLE "Live On Tour 2008 CD3"
FILE "01 - Krannert Welcome.wav" WAVE
TRACK 01 AUDIO
TITLE "Krannert Welcome"
PERFORMER "Trio X"
INDEX 01 00:00:00
FILE "02 - Midwest Mallets.wav" WAVE
TRACK 02 AUDIO
TITLE "Midwest Mallets"
PERFORMER "Trio X"
INDEX 01 00:00:00
FILE "03 - Prairie Fire.wav" WAVE
TRACK 03 AUDIO
TITLE "Prairie Fire"
PERFORMER "Trio X"
INDEX 01 00:00:00
FILE "04 - Brownskin Arts.wav" WAVE
TRACK 04 AUDIO
TITLE "Brownskin Arts"
PERFORMER "Trio X"
INDEX 01 00:00:00
FILE "05 - Old Man River.wav" WAVE
TRACK 05 AUDIO
TITLE "Old Man River"
PERFORMER "Trio X"
INDEX 01 00:00:00
FILE "06 - You Need You Need Not.wav" WAVE
TRACK 06 AUDIO
TITLE "You Need You Need Not"
PERFORMER "Trio X"
INDEX 01 00:00:00
FILE "07 - Brown Skin Girl.wav" WAVE
TRACK 07 AUDIO
TITLE "Brown Skin Girl"
PERFORMER "Trio X"
INDEX 01 00:00:00
FILE "08 - Secret Love.wav" WAVE
TRACK 08 AUDIO
TITLE "Secret Love"
PERFORMER "Trio X"
INDEX 01 00:00:00
 
cd4
REM DISCID 5F113A07
REM COMMENT "ExactAudioCopy v0.95b4"
CATALOG 0786497577620
PERFORMER "Trio X"
TITLE "Live On Tour 2008 CD4"
FILE "01 - Waukee Hello Naima.wav" WAVE
TRACK 01 AUDIO
TITLE "Waukee Hello Naima"
PERFORMER "Trio X"
ISRC H1iCK0900126
INDEX 01 00:00:00
FILE "02 - People Get Ready,Change.wav" WAVE
TRACK 02 AUDIO
TITLE "People Get Ready/Change"
PERFORMER "Trio X"
ISRC H1iCK0900127
INDEX 01 00:00:00
FILE "03 - Old River Man.wav" WAVE
TRACK 03 AUDIO
TITLE "Old River Man"
PERFORMER "Trio X"
ISRC H1iCK0900128
INDEX 01 00:00:00
TRACK 04 AUDIO
TITLE "silence, change of venue"
PERFORMER "Trio X"
ISRC H1iCK0900129
INDEX 00 18:49:20
FILE "04 - silence, change of venue.wav" WAVE
INDEX 01 00:00:00
TRACK 05 AUDIO
TITLE "PolyRhythm Valentine"
PERFORMER "Trio X"
ISRC H1iCK0900130
INDEX 00 00:30:06
FILE "05 - PolyRhythm Valentine.wav" WAVE
INDEX 01 00:00:00
FILE "06 - Davenport Brownskin.wav" WAVE
TRACK 06 AUDIO
TITLE "Davenport Brownskin"
PERFORMER "Trio X"
ISRC H1iCK0900131
INDEX 01 00:00:00
FILE "07 - Going Home.wav" WAVE
TRACK 07 AUDIO
TITLE "Going Home"
PERFORMER "Trio X"
ISRC H1iCK0900132
INDEX 01 00:00:00
 
cd5
REM DISCID 6E0F7709
REM COMMENT "ExactAudioCopy v0.95b4"
CATALOG 0786497577729
PERFORMER "Trio X"
TITLE "Live On Tour 2008 CD5"
FILE "01 - The River, Old Man.wav" WAVE
TRACK 01 AUDIO
TITLE "The River, Old Man"
PERFORMER "Trio X"
ISRC H1iCK0900133
INDEX 01 00:00:00
TRACK 02 AUDIO
TITLE "Pig Knuckles & Rice"
PERFORMER "Trio X"
ISRC H1iCK0900134
INDEX 00 11:15:52
FILE "02 - Pig Knuckles & Rice.wav" WAVE
INDEX 01 00:00:00
TRACK 03 AUDIO
TITLE "For Max & Clifford"
PERFORMER "Trio X"
ISRC H1iCK0900135
INDEX 00 08:08:10
FILE "03 - For Max & Clifford.wav" WAVE
INDEX 01 00:00:00
TRACK 04 AUDIO
TITLE "Traffic"
PERFORMER "Trio X"
ISRC H1iCK0900136
INDEX 00 04:59:39
FILE "04 - Traffic.wav" WAVE
INDEX 01 00:00:00
TRACK 05 AUDIO
TITLE "Secret Love Secret"
PERFORMER "Trio X"
ISRC H1iCK0900137
INDEX 00 04:10:09
FILE "05 - Secret Love Secret.wav" WAVE
INDEX 01 00:00:00
TRACK 06 AUDIO
TITLE "silence, change of venue"
PERFORMER "Trio X"
ISRC H1iCK0900138
INDEX 00 06:30:25
FILE "06 - silence, change of venue.wav" WAVE
INDEX 01 00:00:00
TRACK 07 AUDIO
TITLE "Brownskin Power"
PERFORMER "Trio X"
ISRC H1iCK0900139
INDEX 00 00:30:06
FILE "07 - Brownskin Power.wav" WAVE
INDEX 01 00:00:00
TRACK 08 AUDIO
TITLE "Joe's Song For The Child"
PERFORMER "Trio X"
ISRC H1iCK0900140
INDEX 00 07:48:34
FILE "08 - Joe's Song For The Child.wav" WAVE
INDEX 01 00:00:00
FILE "09 - Fragmonks.wav" WAVE
TRACK 09 AUDIO
TITLE "Fragmonks"
PERFORMER "Trio X"
ISRC H1iCK0900141
INDEX 01 00:00:00
 
Об альбоме (сборнике)
In 2008, Trio X conducted a tenth anniversary tour, all of it recorded by the master engineer, Marc Rusch. And now the music from that tour is preserved in a magnificent 5-CD set: Trio X Live on Tour 2008.
Those who have followed Trio X over the years will find this both familiar and fresh and will rejoice in the pleasures of this new release. Program notes for the complete set are written by Producer Bob Rusch, and address the music and each venue (Colgate University; Edgefest [Ann Arbor, MI]; University of Illinois at Urbana [Champaign, IL]; Waukee, Iowa; Davenport, Iowa [PolyRhythms]; Bowling Green State University [Bowling Green, OH]; and Hamilton College).
Great music, state of the art audio, photos, and insights all wrapped up in one delicious package.
 
Состав
Joe McPhee (flugelhorn, trumpet, tenor and soprano sax)
Dominic Duval (bass)
Jay Rosen (drums)
По всем вопросам пишите личное сообщение пользователю M0p94ok.
13:46
207
Нет комментариев. Ваш будет первым!