Поиск

(Free Improvisation, Experimental, Sound Art, Sound Intallation ) Jeph Jerman ( & Albert Casais, Greg Davis, Tim Barnes, Lawrence English, Animist Orchestra )-Collection-15 Releases - 2001-2008, FLAC (tracks, tracks+.cue, image+.cue ), lossless

Треклист:
Jeph Jerman - Collection Жанр: Free Improvisation, Experimental, Abstract
Год издания диска: 2001-2008
Аудиокодек: FLAC (*.flac)
Тип рипа: image+.cue, track+.cue, tracks
Битрейт аудио: lossless
Источник (релизер): whatcd (sevenarts, err0r) + rutracker ( _ok )
Наличие сканов в содержимом раздачи: нет
Треклист:
 
[2001] Animist Quartets [ 57:44]

Label:Alluvial Recordings
Catalog#:ALL009
Format:CDr
Country:US
Released:2001
Tracklist▲
1 Untitled 27:30
2 Untitled 30:14
Credits▲
Mastered By [Transfer From Analog Tapes] – Steve Brand
Recorded By, Performer [Lava, Cowparsnip Chime, Sea Shells, Stones, Driftwood, Chili Pepper, Lotus Pods, Pine Cones, Poppyseed Pods, Datura Seed Pods, Bladder Sage Pods, Unknown Wooden Balls, Small Shells, Bird Bones, Yucca Flower Stalk, Stone, Large Pine Cones, Agave Stalk Chime] – Jeph Jerman
Notes▲
Animist Quartets was recorded on a four track cassette recorder in Seattle, Washington, and Cottonwood, Arizona, by Jeph Jerman.
Transfer from analog tape to CDr was done by Steve Brand in Roeland Park, Kansas.
 
Audiochecker
AUDIOCHECKER v2.0 beta (build 457) - by Dester - opdester@freemail.hu
~~~~~~~~~~~~~~~~~~~~~~~~~~~~~~~~~~
-=== DO NOT EDIT THIS FILE! ===-
Path: ...\[2001] Animist Quartets
01 -=- 01-01 Jerman, Jeph - Untitled.flac -=- MPEG (99%)
02 -=- 01-02 Jerman, Jeph - Untitled.flac -=- MPEG (100%)
Summary 0,50% CDDA
236965764
 
[2001] Ants In Milk Vetch-Agaves [62:06]
Label:AARC
Catalog#:aarc 01/8
Format:CDr
Country:US
Released:2004
1 Ants In Milk Vetch, Etc.
2 Ants In Milk Vetch, Etc.
3 Ants In Milk Vetch, Etc.
4 Ants In Milk Vetch, Etc.
5 Ants In Milk Vetch, Etc.
6 Ants In Milk Vetch, Etc.
7 Ants In Milk Vetch, Etc.
8 Ants In Milk Vetch, Etc.
9 Ants In Milk Vetch, Etc.
10 Ants In Milk Vetch, Etc.
11 Ants In Milk Vetch, Etc.
12 Ants In Milk Vetch, Etc.
13 Ants In Milk Vetch, Etc.
14 Ants In Milk Vetch, Etc.
15 Ants In Milk Vetch, Etc.
16 Ants In Milk Vetch, Etc.
17 Ants In Milk Vetch, Etc.
18 Ants In Milk Vetch, Etc.
19 Ants In Milk Vetch, Etc.
20 Ants In Milk Vetch, Etc.
21 Ants In Milk Vetch, Etc.
22 Ants In Milk Vetch, Etc.
23 Ants In Milk Vetch, Etc.
24 Ants In Milk Vetch, Etc.
25 Ants In Milk Vetch, Etc.
26 Ants In Milk Vetch, Etc.
27 Ants In Milk Vetch, Etc.
28 Ants In Milk Vetch, Etc.
29 Ants In Milk Vetch, Etc.
30 Ants In Milk Vetch, Etc.
31 Ants In Milk Vetch, Etc.
32 Ants In Milk Vetch, Etc.
33 Ants In Milk Vetch, Etc.
34 Ants In Milk Vetch, Etc.
35 Ants In Milk Vetch, Etc.
36 Ants In Milk Vetch, Etc.
37 Ants In Milk Vetch, Etc.
38 Ants In Milk Vetch, Etc.
39 Ants In Milk Vetch, Etc.
40 Ants In Milk Vetch, Etc.
41 Ants In Milk Vetch, Etc.
42 Ants In Milk Vetch, Etc.
43 Ants In Milk Vetch, Etc.
44 Ants In Milk Vetch, Etc.
45 Ants In Milk Vetch, Etc.
46 Ants In Milk Vetch, Etc.
47 Ants In Milk Vetch, Etc.
48 Two Agave Stalks
 
Audiochecker
AUDIOCHECKER v2.0 beta (build 457) - by Dester - opdester@freemail.hu
~~~~~~~~~~~~~~~~~~~~~~~~~~~~~~~~~~
-=== DO NOT EDIT THIS FILE! ===-
Path: ...\[2001] Ants In Milk Vetch-Agaves
01 -=- 01-01 Jerman, Jeph - Ants In Milk Vetch, Etc.flac -=- CDDA (100%)
02 -=- 01-02 Jerman, Jeph - Ants In Milk Vetch, Etc.flac -=- CDDA (100%)
03 -=- 01-03 Jerman, Jeph - Ants In Milk Vetch, Etc.flac -=- CDDA (100%)
04 -=- 01-04 Jerman, Jeph - Ants In Milk Vetch, Etc.flac -=- CDDA (100%)
05 -=- 01-05 Jerman, Jeph - Ants In Milk Vetch, Etc.flac -=- CDDA (100%)
06 -=- 01-06 Jerman, Jeph - Ants In Milk Vetch, Etc.flac -=- CDDA (100%)
07 -=- 01-07 Jerman, Jeph - Ants In Milk Vetch, Etc.flac -=- CDDA (100%)
08 -=- 01-08 Jerman, Jeph - Ants In Milk Vetch, Etc.flac -=- CDDA (100%)
09 -=- 01-09 Jerman, Jeph - Ants In Milk Vetch, Etc.flac -=- CDDA (100%)
10 -=- 01-10 Jerman, Jeph - Ants In Milk Vetch, Etc.flac -=- CDDA (100%)
11 -=- 01-11 Jerman, Jeph - Ants In Milk Vetch, Etc.flac -=- CDDA (100%)
12 -=- 01-12 Jerman, Jeph - Ants In Milk Vetch, Etc.flac -=- CDDA (100%)
13 -=- 01-13 Jerman, Jeph - Ants In Milk Vetch, Etc.flac -=- CDDA (100%)
14 -=- 01-14 Jerman, Jeph - Ants In Milk Vetch, Etc.flac -=- CDDA (100%)
15 -=- 01-15 Jerman, Jeph - Ants In Milk Vetch, Etc.flac -=- CDDA (100%)
16 -=- 01-16 Jerman, Jeph - Ants In Milk Vetch, Etc.flac -=- CDDA (100%)
17 -=- 01-17 Jerman, Jeph - Ants In Milk Vetch, Etc.flac -=- CDDA (100%)
18 -=- 01-18 Jerman, Jeph - Ants In Milk Vetch, Etc.flac -=- CDDA (100%)
19 -=- 01-19 Jerman, Jeph - Ants In Milk Vetch, Etc.flac -=- CDDA (100%)
20 -=- 01-20 Jerman, Jeph - Ants In Milk Vetch, Etc.flac -=- CDDA (100%)
21 -=- 01-21 Jerman, Jeph - Ants In Milk Vetch, Etc.flac -=- CDDA (100%)
22 -=- 01-22 Jerman, Jeph - Ants In Milk Vetch, Etc.flac -=- CDDA (100%)
23 -=- 01-23 Jerman, Jeph - Ants In Milk Vetch, Etc.flac -=- CDDA (100%)
24 -=- 01-24 Jerman, Jeph - Ants In Milk Vetch, Etc.flac -=- CDDA (100%)
25 -=- 01-25 Jerman, Jeph - Ants In Milk Vetch, Etc.flac -=- CDDA (100%)
26 -=- 01-26 Jerman, Jeph - Ants In Milk Vetch, Etc.flac -=- CDDA (100%)
27 -=- 01-27 Jerman, Jeph - Ants In Milk Vetch, Etc.flac -=- CDDA (100%)
28 -=- 01-28 Jerman, Jeph - Ants In Milk Vetch, Etc.flac -=- CDDA (100%)
29 -=- 01-29 Jerman, Jeph - Ants In Milk Vetch, Etc.flac -=- CDDA (100%)
30 -=- 01-30 Jerman, Jeph - Ants In Milk Vetch, Etc.flac -=- CDDA (100%)
31 -=- 01-31 Jerman, Jeph - Ants In Milk Vetch, Etc.flac -=- CDDA (100%)
32 -=- 01-32 Jerman, Jeph - Ants In Milk Vetch, Etc.flac -=- CDDA (100%)
33 -=- 01-33 Jerman, Jeph - Ants In Milk Vetch, Etc.flac -=- CDDA (100%)
34 -=- 01-34 Jerman, Jeph - Ants In Milk Vetch, Etc.flac -=- CDDA (100%)
35 -=- 01-35 Jerman, Jeph - Ants In Milk Vetch, Etc.flac -=- CDDA (100%)
36 -=- 01-36 Jerman, Jeph - Ants In Milk Vetch, Etc.flac -=- CDDA (100%)
37 -=- 01-37 Jerman, Jeph - Ants In Milk Vetch, Etc.flac -=- CDDA (100%)
38 -=- 01-38 Jerman, Jeph - Ants In Milk Vetch, Etc.flac -=- CDDA (100%)
39 -=- 01-39 Jerman, Jeph - Ants In Milk Vetch, Etc.flac -=- CDDA (100%)
40 -=- 01-40 Jerman, Jeph - Ants In Milk Vetch, Etc.flac -=- CDDA (100%)
41 -=- 01-41 Jerman, Jeph - Ants In Milk Vetch, Etc.flac -=- CDDA (100%)
42 -=- 01-42 Jerman, Jeph - Ants In Milk Vetch, Etc.flac -=- CDDA (100%)
43 -=- 01-43 Jerman, Jeph - Ants In Milk Vetch, Etc.flac -=- CDDA (100%)
44 -=- 01-44 Jerman, Jeph - Ants In Milk Vetch, Etc.flac -=- CDDA (100%)
45 -=- 01-45 Jerman, Jeph - Ants In Milk Vetch, Etc.flac -=- CDDA (100%)
46 -=- 01-46 Jerman, Jeph - Ants In Milk Vetch, Etc.flac -=- CDDA (100%)
47 -=- 01-47 Jerman, Jeph - Ants In Milk Vetch, Etc.flac -=- CDDA (100%)
48 -=- 01-48 Jerman, Jeph - Two Agave Stalks.flac -=- CDDA (100%)
Summary 100,00% CDDA
16094276
 
[2001] Birds, Bees, Insects [ 60:36]
Label:AARC
Catalog#:aarc 01/4
Format:CDr, Reissue
Country:US
Released:2004
Genre:
Tracklist▲
1 Cresote Grasshoppers
2 Dying Moth
3 Grackles
4 Harvester Ants
5 Birds, Wind, Cicadas
6 Cicadas
7 Carpenter Bee In Agave Stalk
8 Bees In Rock Hive
Notes▲
Reissue of cassette release from 2001.
 
Audiochecker
AUDIOCHECKER v2.0 beta (build 457) - by Dester - opdester@freemail.hu
~~~~~~~~~~~~~~~~~~~~~~~~~~~~~~~~~~
-=== DO NOT EDIT THIS FILE! ===-
Path: ...\[2001] Birds, Bees, Insects
01 -=- 01-01 Jerman, Jeph - Creosote Grasshoppers.flac -=- CDDA (100%)
02 -=- 01-02 Jerman, Jeph - Dying Moth.flac -=- CDDA (100%)
03 -=- 01-03 Jerman, Jeph - Grackles.flac -=- CDDA (100%)
04 -=- 01-04 Jerman, Jeph - Harvester Ants.flac -=- CDDA (100%)
05 -=- 01-05 Jerman, Jeph - Birds, Wind, Cicadas.flac -=- CDDA (100%)
06 -=- 01-06 Jerman, Jeph - Cicadas.flac -=- CDDA (100%)
07 -=- 01-07 Jerman, Jeph - Carpenter Bee In Agave Stalk.flac -=- CDDA (100%)
08 -=- 01-08 Jerman, Jeph - Bees In Rock Hive.flac -=- CDDA (100%)
Summary 100,00% CDDA
53882356
 
[2001] Clothesline-Yard Installation [62"57]
Label:AARC
Catalog#:aarc 01/1
Format:CDr
Country:US
Released:2004
Tracklist▲
1 Clothesline In Wind - Mono
2 Clothesline In Wind - Mono
3 Yard Installation (Amplified Cane & Fence)
 
Audiochecker
AUDIOCHECKER v2.0 beta (build 457) - by Dester - opdester@freemail.hu
~~~~~~~~~~~~~~~~~~~~~~~~~~~~~~~~~~
-=== DO NOT EDIT THIS FILE! ===-
Path: ...\[2001] Clothesline-Yard Installation
01 -=- 01-01 Jerman, Jeph - Clothesline In Wind - Mono.flac -=- CDDA (99%)
02 -=- 01-02 Jerman, Jeph - Clothesline In Wind - Mono.flac -=- CDDA (100%)
03 -=- 01-03 Jerman, Jeph - Yard Installation (Amplified Cane & Fence).flac -=- CDDA (100%)
Summary 99,67% CDDA
43608356
 
[2001] Metal Wire & Grass-Beargrass [63:24]
Label:AARC
Catalog#:aarc 01/6
Format:CDr
Country:US
Released:2004
Tracklist▲
1 Metal Wire & Grass
2 Beargrass
Notes▲
reissue of cassette release from 2001
 
Audiochecker
AUDIOCHECKER v2.0 beta (build 457) - by Dester - opdester@freemail.hu
~~~~~~~~~~~~~~~~~~~~~~~~~~~~~~~~~~
-=== DO NOT EDIT THIS FILE! ===-
Path: ...\[2001] Metal Wire & Grass-Beargrass
01 -=- 01-01 Jerman, Jeph - Metal Wire & Grass.flac -=- CDDA (100%)
02 -=- 01-02 Jerman, Jeph - Beargrass.flac -=- CDDA (100%)
Summary 100,00% CDDA
96794484
 
[2001] The Second Attention [29:36]

Label:Anomalous Records
Catalog#:NOM 7
Format:CD
Country:US
Released:29 May 2000
Tracklist▲
1 The Second Attention 29:35
Notes▲
Documentary recording of a live performance in 1999, as part of the "Othersounds Concert Series", in Seattle.
 
Audiochecker
AUDIOCHECKER v2.0 beta (build 457) - by Dester - opdester@freemail.hu
~~~~~~~~~~~~~~~~~~~~~~~~~~~~~~~~~~
-=== DO NOT EDIT THIS FILE! ===-
Path: ...\[2001] The Second Attention
01 -=- 01-01 Jerman, Jeph - The Second Attention.flac -=- CDDA (100%)
218707412
 
[2002] Animist Orchestra - Wuwei [56:44]

Label:Anomalous Records
Catalog#:NOM 14
Format:CD, Album
Country:US
Released:06 Sep 2002
Tracklist▲
1 Untitled 27:47
2 Untitled 28:56
Credits▲
Design [Graphic] – John Hubbard
Liner Notes – Jeph Jerman
Mixed By, Edited By, Mastered By – Doug Haire
Other [Not Present For The Recording] – Eleanor Gallagher, Rachael Jackson, Susie Kozawa
Performer – Dave Knott, Jeffery Taylor, Jeph Jerman, Marina Granger, Mike Shannon (2), Robert Millis
Photography [Back] – Eleanor Gallagher
Photography [Front] – Jeph Jerman
Photography [Inside] – Dave Knott
Notes▲
First heard as a live broadcast on Sonarchy (KEXP, Seattle, WA).
 
Лог создания рипа
Exact Audio Copy V0.99 prebeta 5 from 4. May 2009
EAC extraction logfile from 7. October 2009, 22:17
Animist Orchestra / Wuwei
Used drive : ASUS CRW-4816A Adapter: 3 ID: 1
Read mode : Secure
Utilize accurate stream : Yes
Defeat audio cache : Yes
Make use of C2 pointers : No
Read offset correction : 12
Overread into Lead-In and Lead-Out : No
Fill up missing offset samples with silence : Yes
Delete leading and trailing silent blocks : No
Null samples used in CRC calculations : Yes
Used interface : Installed external ASPI interface
Used output format : User Defined Encoder
Selected bitrate : 1024 kBit/s
Quality : High
Add ID3 tag : No
Command line compressor : C:\Program Files\Exact Audio Copy\Flac\flac.exe
Additional command line options : -8 -V -T "ARTIST=%a" -T "ALBUM=%g" -T "DATE=%y" -T "GENRE=%m" %s -o %d
TOC of the extracted CD
Track | Start | Length | Start sector | End sector
---------------------------------------------------------
1 | 0:00.01 | 27:47.44 | 1 | 125069
2 | 27:47.45 | 28:56.15 | 125070 | 255284
Range status and errors
Selected range
Filename F:\temp\nnm\Animist Orchestra - Wuwei.wav
Peak level 98.8 %
Range quality 100.0 %
Test CRC D4D8E307
Copy CRC D4D8E307
Copy OK
No errors occurred
AccurateRip summary
Track 1 not present in database
Track 2 not present in database
None of the tracks are present in the AccurateRip database
End of status report
 
Содержание индексной карты (.CUE)
REM GENRE Other
REM DATE 2002
REM DISCID 180D4B02
REM COMMENT "ExactAudioCopy v0.99pb5"
PERFORMER "Animist Orchestra"
TITLE "Wuwei"
FILE "Animist Orchestra - Wuwei.flac" WAVE
TRACK 01 AUDIO
TITLE "Untitled"
PERFORMER "Animist Orchestra"
FLAGS DCP
INDEX 00 00:00:00
INDEX 01 00:00:01
TRACK 02 AUDIO
TITLE "Untitled"
PERFORMER "Animist Orchestra"
FLAGS DCP
INDEX 00 27:47:44
INDEX 01 27:47:45
 
[2003] Instability Studies [56:16]

Label:Anomalous Records
Catalog#:NOM 21
Format:CD, Album, Limited Edition
Country:US
Released:10 Mar 2003
Tracklist▲
1 Sugar Bowl 6:06
2 Shaketable (Simple) 13:38
3 Shaketable (Simple) 9:41
4 Shaketable (Complex) 26:49
Notes▲
Created from the interaction of ceramic sugar bowls and other objects upon a vibrating "shaketable" apparatus.
Released in an edition of 300 copies with original handmade covers in mixed media.
 
Лог создания рипа
Exact Audio Copy V0.99 prebeta 5 from 4. May 2009
EAC extraction logfile from 28. June 2010, 16:04
Jeph Jerman / Instability Studies
Used drive : PIONEER DVD-RW DVR-111D Adapter: 0 ID: 1
Read mode : Secure
Utilize accurate stream : Yes
Defeat audio cache : Yes
Make use of C2 pointers : No
Read offset correction : 48
Overread into Lead-In and Lead-Out : No
Fill up missing offset samples with silence : Yes
Delete leading and trailing silent blocks : No
Null samples used in CRC calculations : Yes
Used interface : Native Win32 interface for Win NT & 2000
Gap handling : Appended to previous track
Used output format : User Defined Encoder
Selected bitrate : 128 kBit/s
Quality : High
Add ID3 tag : No
Command line compressor : C:\Program Files\Exact Audio Copy\Flac\flac.exe
Additional command line options : -V -8 -T "artist=%a" -T "title=%t" -T "album=%g" -T "date=%y" -T "tracknumber=%n" -T "genre=%m" %s
TOC of the extracted CD
Track | Start | Length | Start sector | End sector
---------------------------------------------------------
1 | 0:00.00 | 6:06.54 | 0 | 27503
2 | 6:06.54 | 13:38.64 | 27504 | 88917
3 | 19:45.43 | 9:41.23 | 88918 | 132515
4 | 29:26.66 | 26:49.37 | 132516 | 253227
Track 1
Filename H:\Ripped CDs\Jeph Jerman\Instability Studies\Jeph Jerman - (01) Sugar Bowl.wav
Pre-gap length 0:00:02.00
Peak level 100.0 %
Track quality 100.0 %
Test CRC 85C3AFEB
Copy CRC 85C3AFEB
Track not present in AccurateRip database
Copy OK
Track 2
Filename H:\Ripped CDs\Jeph Jerman\Instability Studies\Jeph Jerman - (02) Shaketable (Simple).wav
Peak level 100.0 %
Track quality 99.9 %
Test CRC 15B7878E
Copy CRC 15B7878E
Track not present in AccurateRip database
Copy OK
Track 3
Filename H:\Ripped CDs\Jeph Jerman\Instability Studies\Jeph Jerman - (03) Shaketable (Simple).wav
Peak level 100.0 %
Track quality 100.0 %
Test CRC 6187C883
Copy CRC 6187C883
Track not present in AccurateRip database
Copy OK
Track 4
Filename H:\Ripped CDs\Jeph Jerman\Instability Studies\Jeph Jerman - (04) Shaketable (Complex).wav
Peak level 100.0 %
Track quality 100.0 %
Test CRC 4B2AA5E6
Copy CRC 4B2AA5E6
Track not present in AccurateRip database
Copy OK
None of the tracks are present in the AccurateRip database
No errors occurred
End of status report
 
Содержание индексной карты (.CUE)
REM GENRE Experimental
REM DATE 2003
REM DISCID 3A0D3004
REM COMMENT "ExactAudioCopy v0.99pb5"
FILE "Jeph Jerman - (01) Sugar Bowl.flac" WAVE
TRACK 01 AUDIO
FLAGS DCP
INDEX 01 00:00:00
FILE "Jeph Jerman - (02) Shaketable (Simple).flac" WAVE
TRACK 02 AUDIO
FLAGS DCP
INDEX 01 00:00:00
FILE "Jeph Jerman - (03) Shaketable (Simple).flac" WAVE
TRACK 03 AUDIO
FLAGS DCP
INDEX 01 00:00:00
FILE "Jeph Jerman - (04) Shaketable (Complex).flac" WAVE
TRACK 04 AUDIO
FLAGS DCP
INDEX 01 00:00:00
 
[2005] Harvester Ants - March 24th, 2001 [29:45]

Label:Autumn Records
Catalog#:leaf 012
Format:CDr
Country:US
Released:2005
Tracklist▲
1 Harvester Ants - March 24th, 2001 29:44
Notes▲
Part of the Autumn Records leaves CDR series, dedicated to pure field recordings and environmental improvisation.
 
Audiochecker
AUDIOCHECKER v2.0 beta (build 457) - by Dester - opdester@freemail.hu
~~~~~~~~~~~~~~~~~~~~~~~~~~~~~~~~~~
-=== DO NOT EDIT THIS FILE! ===-
Path: ...\[2005] Harvester Ants - March 24th, 2001
01 -=- 01-01 Jerman, Jeph - Harvester Ants.flac -=- CDDA (100%)
185183940
 
[2006] And This ( Jeph Jerman And Albert Casais ) [71:51]

Winds Measure Recordings
Catalog#:wm01
Format:CDr, Limited Edition
Country:US
Released:2006
Tracklist▲
1 Untitled 27:18
2 Untitled 24:47
3 Untitled 19:45
Credits▲
Performer [Blue Spruce Pine Cone, Japanese Birch Branch, Mexican Lake Pebbles, Lava Stones, Seed Pod, Sycamore Branch, Seashell Fragments, Burr, Conch Shell, Petrified Wood, Fossilized Corral, Acorns, Large Pine Cone] – Albert Casais
Performer [Wood Galls, Sea Shells, Milk Vetch Pods, Unknown Bean-shaped Pods, Dried Morel Mushrooms, Nutmeg, Frame Drum, Saw Blades, Pumice, Squeaky Floor, Metal Bowl, Sand Dollar, Stone Bowl, Stone Marble, Sea Bean Pod, Wooden Pegs, Basket Rattle, Large Pine Cone, Small Ceramic Pot, Stone Ring, Gourds And Parts, Cactus Needles, Small Stones] – Jeph Jerman
Notes▲
Edition of 100 numbered copies, packaged in a long silkscreen and letterpress sleeve.
"i forget the neighbor's stereo, the children playing loudly behind the house, the refridgerator and hot water heater. just sound. like focusing one's eyes on a small detail in the room, the background becomes fuzzy and its edges blur... (excerpt)" Jeph Jerman, 2006
 
Лог создания рипа
Exact Audio Copy V0.99 prebeta 5 from 4. May 2009
EAC extraction logfile from 22. June 2009, 7:08
Jeph Jerman & Albert Casais / And This
Used drive : PIONEER DVD-RW DVR-111D Adapter: 0 ID: 1
Read mode : Secure
Utilize accurate stream : Yes
Defeat audio cache : Yes
Make use of C2 pointers : No
Read offset correction : 48
Overread into Lead-In and Lead-Out : No
Fill up missing offset samples with silence : Yes
Delete leading and trailing silent blocks : No
Null samples used in CRC calculations : Yes
Used interface : Native Win32 interface for Win NT & 2000
Gap handling : Appended to previous track
Used output format : User Defined Encoder
Selected bitrate : 768 kBit/s
Quality : High
Add ID3 tag : No
Command line compressor : C:\Program Files\Exact Audio Copy\Flac\flac.exe
Additional command line options : -V -8 -T "artist=%a" -T "title=%t" -T "album=%g" -T "date=%y" -T "tracknumber=%n" -T "genre=%m" %s
TOC of the extracted CD
Track | Start | Length | Start sector | End sector
---------------------------------------------------------
1 | 0:00.00 | 27:18.07 | 0 | 122856
2 | 27:18.07 | 24:47.55 | 122857 | 234436
3 | 52:05.62 | 19:45.08 | 234437 | 323319
Track 1
Filename H:\Ripped CDs\Jeph Jerman & Albert Casais\And This\Jeph Jerman & Albert Casais - (01) Track01.wav
Pre-gap length 0:00:02.00
Peak level 100.0 %
Track quality 99.9 %
Test CRC 91268E3A
Copy CRC 91268E3A
Track not present in AccurateRip database
Copy OK
Track 2
Filename H:\Ripped CDs\Jeph Jerman & Albert Casais\And This\Jeph Jerman & Albert Casais - (02) Track02.wav
Pre-gap length 0:00:02.00
Peak level 39.6 %
Track quality 100.0 %
Test CRC 8A2B7635
Copy CRC 8A2B7635
Track not present in AccurateRip database
Copy OK
Track 3
Filename H:\Ripped CDs\Jeph Jerman & Albert Casais\And This\Jeph Jerman & Albert Casais - (03) Track03.wav
Pre-gap length 0:00:02.00
Peak level 100.0 %
Track quality 100.0 %
Test CRC 3928BD68
Copy CRC 3928BD68
Track not present in AccurateRip database
Copy OK
None of the tracks are present in the AccurateRip database
No errors occurred
End of status report
 
Содержание индексной карты (.CUE)
REM GENRE Ambient
REM DATE 2006
REM DISCID 1A10D603
REM COMMENT "ExactAudioCopy v0.99pb5"
PERFORMER "Jeph Jerman & Albert Casais"
TITLE "And This"
FILE "Jeph Jerman & Albert Casais - (01) Track01.flac" WAVE
TRACK 01 AUDIO
TITLE "Track01"
PERFORMER "Jeph Jerman & Albert Casais"
INDEX 01 00:00:00
TRACK 02 AUDIO
TITLE "Track02"
PERFORMER "Jeph Jerman & Albert Casais"
INDEX 00 27:16:07
FILE "Jeph Jerman & Albert Casais - (02) Track02.flac" WAVE
INDEX 01 00:00:00
TRACK 03 AUDIO
TITLE "Track03"
PERFORMER "Jeph Jerman & Albert Casais"
INDEX 00 24:45:55
FILE "Jeph Jerman & Albert Casais - (03) Track03.flac" WAVE
INDEX 01 00:00:00
 
[2006] Drumber [46:13]

Label:AARC
Catalog#:none
Format:CDr, Album
Country:US
Released:2006
Tracklist▲
1 Untitled 2:05
2 Untitled 2:51
3 Untitled 3:41
4 Untitled 2:01
5 Untitled 4:50
6 Untitled 2:26
7 Untitled 0:53
8 Untitled 3:27
9 Untitled 7:28
10 Untitled 1:18
11 Untitled 12:54
12 Untitled 2:20
Notes▲
Recorded on 4 track analog cassette deck, Nov-Dec 2006 at Estudio Sonar using purely acoustic sound sources: toy drum set, frame drums, singing bowl, bell, kitchen implements, chinese health balls, dowls, chop sticks and violin bow.
 
Audiochecker
AUDIOCHECKER v2.0 beta (build 457) - by Dester - opdester@freemail.hu
~~~~~~~~~~~~~~~~~~~~~~~~~~~~~~~~~~
-=== DO NOT EDIT THIS FILE! ===-
Path: ...\[2006] Drumber
01 -=- 01-01 Jerman, Jeph - Untitled.flac -=- CDDA (100%)
02 -=- 01-02 Jerman, Jeph - Untitled.flac -=- MPEG (93%)
03 -=- 01-03 Jerman, Jeph - Untitled.flac -=- CDDA (100%)
04 -=- 01-04 Jerman, Jeph - Untitled.flac -=- CDDA (43%)
05 -=- 01-05 Jerman, Jeph - Untitled.flac -=- CDDA (100%)
06 -=- 01-06 Jerman, Jeph - Untitled.flac -=- CDDA (87%)
07 -=- 01-07 Jerman, Jeph - Untitled.flac -=- CDDA (100%)
08 -=- 01-08 Jerman, Jeph - Untitled.flac -=- CDDA (100%)
09 -=- 01-09 Jerman, Jeph - Untitled.flac -=- CDDA (100%)
10 -=- 01-10 Jerman, Jeph - Untitled.flac -=- CDDA (100%)
11 -=- 01-11 Jerman, Jeph - Untitled.flac -=- MPEG (100%)
12 -=- 01-12 Jerman, Jeph - Untitled.flac -=- CDDA (100%)
Summary 78,08% CDDA
199578036
 
[2006] Ku ( Greg Davis & Jeph Jerman ) [48:21]

Label:Room40
Catalog#:RM416
Format:CD
Country:Australia
Released:2006
Tracklist▲
1 First Strata 9:32
2 Second Strata 20:41
3 Third Strata 18:07
Credits▲
Mixed By, Edited By, Mastered By – Greg Davis
Notes▲
Acoustic improvisations recorded in Cottonwood, Arizona between December 2003 - December 2005. Mixed, edited and mastered by Greg Davis in Burlington, Vermont between March - June 2006.
Packaged in heavy card foldover sleeve.
 
Лог создания рипа
Exact Audio Copy V0.99 prebeta 4 from 23. January 2008
EAC extraction logfile from 10. September 2008, 13:35
Greg Davis & Jeph Jerman / Ku
Used drive : PIONEER DVD-RW DVR-111D Adapter: 0 ID: 0
Read mode : Secure
Utilize accurate stream : Yes
Defeat audio cache : Yes
Make use of C2 pointers : No
Read offset correction : 48
Overread into Lead-In and Lead-Out : No
Fill up missing offset samples with silence : Yes
Delete leading and trailing silent blocks : No
Null samples used in CRC calculations : Yes
Used interface : Native Win32 interface for Win NT & 2000
Gap handling : Appended to previous track
Used output format : User Defined Encoder
Selected bitrate : 768 kBit/s
Quality : High
Add ID3 tag : No
Command line compressor : D:\Program Files\Exact Audio Copy\FLAC\FLAC.EXE
Additional command line options : -V -8 -T "artist=%a" -T "title=%t" -T "album=%g" -T "date=%y" -T "tracknumber=%n" -T "genre=%m" %s
TOC of the extracted CD
Track | Start | Length | Start sector | End sector
---------------------------------------------------------
1 | 0:00.00 | 9:32.08 | 0 | 42907
2 | 9:32.08 | 20:41.72 | 42908 | 136054
3 | 30:14.05 | 18:07.03 | 136055 | 217582
Track 1
Filename C:\Ripped CDs\Greg Davis & Jeph Jerman\Ku\Greg Davis & Jeph Jerman - (01) First Strata.wav
Pre-gap length 0:00:02.00
Peak level 79.4 %
Track quality 100.0 %
Test CRC 0851D0D4
Copy CRC 0851D0D4
Track not present in AccurateRip database
Copy OK
Track 2
Filename C:\Ripped CDs\Greg Davis & Jeph Jerman\Ku\Greg Davis & Jeph Jerman - (02) Second Strata.wav
Pre-gap length 0:00:03.00
Peak level 100.0 %
Track quality 100.0 %
Test CRC DD42728B
Copy CRC DD42728B
Track not present in AccurateRip database
Copy OK
Track 3
Filename C:\Ripped CDs\Greg Davis & Jeph Jerman\Ku\Greg Davis & Jeph Jerman - (03) Third Strata.wav
Pre-gap length 0:00:03.00
Peak level 89.1 %
Track quality 100.0 %
Test CRC 244CFB2F
Copy CRC 244CFB2F
Track not present in AccurateRip database
Copy OK
None of the tracks are present in the AccurateRip database
No errors occurred
End of status report
 
Содержание индексной карты (.CUE)
REM DATE 2006
REM DISCID 220B5503
REM COMMENT "ExactAudioCopy v0.99pb4"
PERFORMER "Greg Davis & Jeph Jerman"
TITLE "Ku"
FILE "Greg Davis & Jeph Jerman - (01) First Strata.flac" WAVE
TRACK 01 AUDIO
TITLE "First Strata"
PERFORMER "Greg Davis & Jeph Jerman"
INDEX 01 00:00:00
TRACK 02 AUDIO
TITLE "Second Strata"
PERFORMER "Greg Davis & Jeph Jerman"
INDEX 00 09:29:08
FILE "Greg Davis & Jeph Jerman - (02) Second Strata.flac" WAVE
INDEX 01 00:00:00
TRACK 03 AUDIO
TITLE "Third Strata"
PERFORMER "Greg Davis & Jeph Jerman"
INDEX 00 20:38:72
FILE "Greg Davis & Jeph Jerman - (03) Third Strata.flac" WAVE
INDEX 01 00:00:00
 
[2006] Live 2004 ( Tim Barnes & Jeph Jerman ) [31:30]

Label:AARC
Catalog#:none
Format:CDr, Album
Country:US
Released:2006
Tracklist▲
1 NYC 7 25 04 21:48
2 Montague 7 23 04 9:40
Notes▲
Packaged in white gatefold sleeve with spray painted exterior and hand stamped interior.
 
Лог создания рипа
Exact Audio Copy V0.99 prebeta 5 from 4. May 2009
EAC extraction logfile from 16. October 2010, 11:51
Tim Barnes & Jeph Jerman / Live 2004
Used drive : PIONEER DVD-RW DVR-111D Adapter: 0 ID: 1
Read mode : Secure
Utilize accurate stream : Yes
Defeat audio cache : Yes
Make use of C2 pointers : No
Read offset correction : 48
Overread into Lead-In and Lead-Out : No
Fill up missing offset samples with silence : Yes
Delete leading and trailing silent blocks : No
Null samples used in CRC calculations : Yes
Used interface : Native Win32 interface for Win NT & 2000
Gap handling : Appended to previous track
Used output format : User Defined Encoder
Selected bitrate : 128 kBit/s
Quality : High
Add ID3 tag : No
Command line compressor : C:\Program Files\Exact Audio Copy\Flac\flac.exe
Additional command line options : -V -8 -T "artist=%a" -T "title=%t" -T "album=%g" -T "date=%y" -T "tracknumber=%n" -T "genre=%m" %s
TOC of the extracted CD
Track | Start | Length | Start sector | End sector
---------------------------------------------------------
1 | 0:00.00 | 21:48.65 | 0 | 98164
2 | 21:48.65 | 9:41.06 | 98165 | 141745
Track 1
Filename H:\Ripped CDs\Tim Barnes & Jeph Jerman\Live 2004\Tim Barnes & Jeph Jerman - (01) NYC 7 25 04.wav
Pre-gap length 0:00:02.00
Peak level 53.0 %
Track quality 100.0 %
Test CRC CB957D00
Copy CRC CB957D00
Track not present in AccurateRip database
Copy OK
Track 2
Filename H:\Ripped CDs\Tim Barnes & Jeph Jerman\Live 2004\Tim Barnes & Jeph Jerman - (02) Montague 7 23 04.wav
Peak level 76.4 %
Track quality 100.0 %
Test CRC 0BFEA0AC
Copy CRC 0BFEA0AC
Track not present in AccurateRip database
Copy OK
None of the tracks are present in the AccurateRip database
No errors occurred
End of status report
 
Содержание индексной карты (.CUE)
REM GENRE Jazz
REM DATE 2004
REM DISCID 07076102
REM COMMENT "ExactAudioCopy v0.99pb5"
FILE "Tim Barnes & Jeph Jerman - (01) NYC 7 25 04.flac" WAVE
TRACK 01 AUDIO
INDEX 01 00:00:00
FILE "Tim Barnes & Jeph Jerman - (02) Montague 7 23 04.flac" WAVE
TRACK 02 AUDIO
INDEX 01 00:00:00
 
[2007] Grey (w- Detail) [55:32]

Label:AARC
Catalog#:none
Format:CDr
Country:US
Released:2007
Tracklist▲
1 Grey (W/Detail) 30:59
2 In Tombs 24:32
Notes▲
Constructed from field recordings of New York City and Oaxaca, Mexico.
 
Audiochecker
AUDIOCHECKER v2.0 beta (build 457) - by Dester - opdester@freemail.hu
~~~~~~~~~~~~~~~~~~~~~~~~~~~~~~~~~~
-=== DO NOT EDIT THIS FILE! ===-
Path: ...\[2007] Grey (w- Detail)
01 -=- 01-01 Jerman, Jeph - Grey (w- Detail).flac -=- CDDA (100%)
02 -=- 01-02 Jerman, Jeph - In Tombs.flac -=- CDDA (100%)
Summary 100,00% CDDA
203857076
 
[2008] Gradually You Feel The Tide At Your Neck / 9 (C&H001) EP Lawrence English &Jeph Jerman [17:55]

Label:Compost And Height
Catalog#:C&H001
Format:CDr, Mini, Limited Edition
Country:UK
Released:Jul 2008
Tracklist▲
1 Lawrence English – Gradually You Feel The Tide At Your Neck 8:51
2 Jeph Jerman – 9 9:04
Notes▲
'Gradually you feel the tide at your neck' recorded at Mudjimba + Marcus Beach 2008.
'9' for Patrick Farmer and Sarah Hughes. Assembled from recordings of meteorites, sferics, and radio emissions from Saturn.
Edition of 50 numbered copies.
 
Лог создания рипа
Exact Audio Copy V0.99 prebeta 4 from 23. January 2008
EAC extraction logfile from 19. September 2008, 11:33
Lawrence English / Jeph Jerman / C&H001
Used drive : PIONEER DVD-RW DVR-111D Adapter: 0 ID: 0
Read mode : Secure
Utilize accurate stream : Yes
Defeat audio cache : Yes
Make use of C2 pointers : No
Read offset correction : 48
Overread into Lead-In and Lead-Out : No
Fill up missing offset samples with silence : Yes
Delete leading and trailing silent blocks : No
Null samples used in CRC calculations : Yes
Used interface : Native Win32 interface for Win NT & 2000
Gap handling : Appended to previous track
Used output format : User Defined Encoder
Selected bitrate : 768 kBit/s
Quality : High
Add ID3 tag : No
Command line compressor : D:\Program Files\Exact Audio Copy\FLAC\FLAC.EXE
Additional command line options : -V -8 -T "artist=%a" -T "title=%t" -T "album=%g" -T "date=%y" -T "tracknumber=%n" -T "genre=%m" %s
TOC of the extracted CD
Track | Start | Length | Start sector | End sector
---------------------------------------------------------
1 | 0:00.00 | 8:51.05 | 0 | 39829
2 | 8:51.05 | 9:04.26 | 39830 | 80655
Track 1
Filename C:\Ripped CDs\Lawrence English , Jeph Jerman\C&H001\Lawrence English , Jeph Jerman - (01) Lawrence English - Gradually You Feel The Tide At Your Neck.wav
Pre-gap length 0:00:02.00
Peak level 100.0 %
Track quality 100.0 %
Test CRC 81AB8D55
Copy CRC 81AB8D55
Track not present in AccurateRip database
Copy OK
Track 2
Filename C:\Ripped CDs\Lawrence English , Jeph Jerman\C&H001\Lawrence English , Jeph Jerman - (02) Jeph Jerman - '9' For Patrick Farmer And Sarah Hughes.wav
Pre-gap length 0:00:02.00
Peak level 78.4 %
Track quality 100.0 %
Test CRC D4A9955F
Copy CRC D4A9955F
Track not present in AccurateRip database
Copy OK
None of the tracks are present in the AccurateRip database
No errors occurred
End of status report
 
Содержание индексной карты (.CUE)
REM DATE 2008
REM DISCID 0D043302
REM COMMENT "ExactAudioCopy v0.99pb4"
PERFORMER "Lawrence English / Jeph Jerman"
TITLE "C&H001"
FILE "Lawrence English , Jeph Jerman - (01) Lawrence English - Gradually You Feel The Tide At Your Neck.flac" WAVE
TRACK 01 AUDIO
TITLE "Lawrence English - Gradually You Feel The Tide At Your Neck"
PERFORMER "Lawrence English / Jeph Jerman"
INDEX 01 00:00:00
TRACK 02 AUDIO
TITLE "Jeph Jerman - '9' For Patrick Farmer And Sarah Hughes"
PERFORMER "Lawrence English / Jeph Jerman"
INDEX 00 08:49:05
FILE "Lawrence English , Jeph Jerman - (02) Jeph Jerman - '9' For Patrick Farmer And Sarah Hughes.flac" WAVE
INDEX 01 00:00:00
C рутрекера только http://rutracker.org/forum/viewtopic.php?t=2303972 Если кто найдет картинки ( отсутствующие ) к альбомам - кидайте.
По всем вопросам пишите личное сообщение пользователю M0p94ok.
13:47
232
Нет комментариев. Ваш будет первым!