Поиск

(Modern Big Band, Free Improvisation, Avant-garde, Post-Bop, Vibraphone/Marimba Jazz) Karl Berger Orchestra (Jean-Louis Matinier, Enrico Rava, Ernst Reijseger, Ingrid Sertso, Arkady Shilkloper) - No Man Is An Island - 1996, APE (image+.cue) lossless

(Modern Big Band, Free Improvisation, Avant-garde, Post-Bop, Vibraphone/Marimba Jazz) Karl Berger Orchestra (Jean-Louis Matinier, Enrico Rava, Ernst Reijseger, Ingrid Sertso, Arkady Shilkloper) - No Man Is An Island - 1996, APE (image+.cue) lossless
Треклист:
Karl Berger Orchestra - No Man Is An Island
Jean-Louis Matinier - Enrico Rava - Ernst Reijseger - Ingrid Sertso - Arkady Shilkloper
Жанр: Modern Big Band, Free Improvisation, Avant-garde, Post-Bop, Vibraphone / Marimba Jazz
Страна-производитель диска: USA
Год издания диска: 1996
Издатель (лейбл): Douglas Music (A Division of Gravity Limited)
Номер по каталогу: ADC4
Аудио кодек: APE (*.ape)
Тип рипа: image+.cue
Битрейт аудио: lossless
Продолжительность: 00:45:28
Источник (релизер): barin99
Наличие сканов в содержимом раздачи: да
Треклист:
1. Movement 1 (4:55)
2. Movement 2 (6:27)
3. Movement 3 (4:47)
4. Movement 4 (3:24)
5. Movement 5 (4:20)
6. Movement 6 (6:29)
7. Movement 7 (2:30)
8. Movement 8 (6:03)
9. Movement 9 (6:27)
Recorded and performed at the Donaueschingen Festival by German Radio / TV Network SWF.
Personnel:
Jean-Louis Matinier — Accordion
Enrico Rava — Trumpet
Ernst Reijseger — Cello
Ingrid Sertso — Voice
Arkady Shilkloper — French Horn
Karl Berger — Piano, Vibraphone, Vibe Master
Bernd Konrad — Clarinet, Saxophone
Johannes Blumenruother — Strings
Barbara Kummer — Strings
Kerstin Hulleman — Strings
Marc Abrams — Bass
Bill Elgart — Percussion, Drums
 
Лог создания рипа (EAC Log)
Exact Audio Copy V0.99 prebeta 4 from 23. January 2008
EAC extraction logfile from 26. April 2009, 16:31
Karl Berger Orchestra / No Man is an Island
Used drive : HL-DT-STRW/DVD GCC-4242N Adapter: 1 ID: 0
Read mode : Secure
Utilize accurate stream : Yes
Defeat audio cache : Yes
Make use of C2 pointers : No
Read offset correction : 102
Overread into Lead-In and Lead-Out : No
Fill up missing offset samples with silence : Yes
Delete leading and trailing silent blocks : No
Null samples used in CRC calculations : Yes
Used interface : Native Win32 interface for Win NT & 2000
Used output format : Internal WAV Routines
Sample format : 44.100 Hz; 16 Bit; Stereo
TOC of the extracted CD
Track | Start | Length | Start sector | End sector
---------------------------------------------------------
1 | 0:00.32 | 4:55.63 | 32 | 22219
2 | 4:56.20 | 6:27.47 | 22220 | 51291
3 | 11:23.67 | 4:47.35 | 51292 | 72851
4 | 16:11.27 | 3:24.53 | 72852 | 88204
5 | 19:36.05 | 4:20.40 | 88205 | 107744
6 | 23:56.45 | 6:29.50 | 107745 | 136969
7 | 30:26.20 | 2:30.35 | 136970 | 148254
8 | 32:56.55 | 6:03.32 | 148255 | 175511
9 | 39:00.12 | 6:28.50 | 175512 | 204661
Range status and errors
Selected range
Filename C:\_\EAC_Out\Out\Karl Berger Orchestra - No Man is an Island\Karl Berger Orchestra - No Man is an Island.wav
Peak level 99.3 %
Range quality 100.0 %
Copy CRC 1BDAE093
Copy OK
No errors occurred
AccurateRip summary
Track 1 accurately ripped (confidence 1) [0168052E]
Track 2 accurately ripped (confidence 1) [7B495E9F]
Track 3 accurately ripped (confidence 1) [AA88267E]
Track 4 accurately ripped (confidence 1) [BF175CF1]
Track 5 accurately ripped (confidence 1) [9B87E1B0]
Track 6 accurately ripped (confidence 1) [6ABC7642]
Track 7 accurately ripped (confidence 1) [5080C402]
Track 8 accurately ripped (confidence 1) [24E5CD42]
Track 9 accurately ripped (confidence 1) [0C946FA4]
All tracks accurately ripped
End of status report
 
Содержание индексной карты (.CUE)
REM GENRE Jazz
REM DATE 1995
REM DISCID 930AA809
REM COMMENT "ExactAudioCopy v0.99pb4"
PERFORMER "Karl Berger Orchestra"
TITLE "No Man is an Island"
FILE "Karl Berger Orchestra - No Man is an Island.ape" WAVE
TRACK 01 AUDIO
TITLE "Movement 1"
PERFORMER "Karl Berger Orchestra"
INDEX 00 00:00:00
INDEX 01 00:00:32
TRACK 02 AUDIO
TITLE "Movement 2"
PERFORMER "Karl Berger Orchestra"
INDEX 01 04:56:20
TRACK 03 AUDIO
TITLE "Movement 3"
PERFORMER "Karl Berger Orchestra"
INDEX 01 11:23:67
TRACK 04 AUDIO
TITLE "Movement 4"
PERFORMER "Karl Berger Orchestra"
INDEX 01 16:11:27
TRACK 05 AUDIO
TITLE "Movement 5"
PERFORMER "Karl Berger Orchestra"
INDEX 01 19:36:05
TRACK 06 AUDIO
TITLE "Movement 6"
PERFORMER "Karl Berger Orchestra"
INDEX 01 23:56:45
TRACK 07 AUDIO
TITLE "Movement 7"
PERFORMER "Karl Berger Orchestra"
INDEX 01 30:26:20
TRACK 08 AUDIO
TITLE "Movement 8"
PERFORMER "Karl Berger Orchestra"
INDEX 01 32:56:55
TRACK 09 AUDIO
TITLE "Movement 9"
PERFORMER "Karl Berger Orchestra"
INDEX 01 39:00:12
 
AMG
"Pianist and vibraphone player Karl Berger cites Ornette Coleman as a close friend and mentor; Coleman's ways of playing jazz are certainly reflected in Berger's concept, more so than any other vibist one could name. Berger eschews four-mallet technique; his style is all single-line, with little (if any) chordal playing. Berger's compositions are brief, song-like free-bop heads in the manner of Ornette, with free/modal solo sections sandwiched in between the theme statements. At his best, Berger's improvisations have much in common with his tunes; they are strongly and logically rhythmic, played over a swinging pulse, and mostly tied to tonal centers. Like Coleman, Berger is not as radical in the hearing as one might expect; both their musics are based on the core elements of swing and coherent melody.
Berger began playing piano in his native Germany at the age of ten. As a young adult, he landed a gig as house pianist for jam sessions at Club 54 in Heidelberg. There he accompanied such visiting American players as Leo Wright, Lex Humphries, and Don Ellis — learning, in the process, the complexities of modern jazz. Eventually, he took up vibes and in the early '60s developed an interest in free jazz. Berger earned a Ph.D. in musicology in 1963; two years later, he joined Don Cherry's Paris-based quintet. The group traveled to New York in 1966 to record Symphony for Improvisers on Blue Note. Berger stayed in the U.S. and recorded his first album under his own name for ESP later that year. From 1967-71, Berger played educational demonstrations in public schools with the pianist Horace Arnold's group, and led his own ensembles. In 1972, he and Coleman formed the Creative Music Studio in Woodstock, NY (www.CreativeMusicStudio.org). The school was geared toward encouraging young students to explore their own creative ideas, rather than imposing traditional jazz concepts upon them. Teachers at the school at various times included Jack DeJohnette, Sam Rivers, and Anthony Braxton, among many other prominent musicians. In the summer of 1982, Berger led a 28-piece big band at a "Jazz and World Music" concert as part of that year's Kool Jazz Festival in New York. Berger cut back on his teaching, shutting down the Creative Music School in the mid-'80s. Consequently, he became more active as a player, embarking on a world tour in 1985-6, during which he served as a guest conductor and composer for the West German Radio Orchestra in Cologne. Berger also participated in percussion festivals in New Delhi and Bombay, and served as a pianist in a duo with the African percussionist Baba Olatunji. Berger has not recorded prolifically, though he has worked as a sideman on sessions with guitarist John McLaughlin, saxophonist Lee Konitz, and bassist Alan Silva. He also played on Carla Bley's late-'60s recording of "Escalator Over the Hill." Of Berger's later recordings as leader, 1987's Transit (with Ed Blackwell and Dave Holland), and 1990's Around — both on Black Saint — are well worth seeking out. During the '90s, Berger led several more dates for a variety of labels. He has his own website at KarlBerger.com."
 
The Sixth Movement
From the Back cover:
"The Sixth Movement is an Interlude, spontaneeouuusly created in memory of Don Cherry: three hours before the performance in Donaueschingen we learned that he had passed away. He was our dear brother for many years of musical and personal communication. Ingrid chose the words by Khalil Gibran for this dedication."
 
Douglas Music (info)
Douglas Music
Profile:
US label founded by producer Alan Douglas in the 90s.
... Великолепный альбом! ...
По всем вопросам пишите личное сообщение пользователю M0p94ok.
13:45
311
Нет комментариев. Ваш будет первым!