Вы используете незарегистрированную версию компонента "Вкладки"!

Поиск

(Free Jazz, Hat Hut Records) Franz Koglmann & Lee Konitz - We Thought About Duke - 2002, FLAC (tracks+.cue), lossless

(Free Jazz, Hat Hut Records) Franz Koglmann & Lee Konitz - We Thought About Duke - 2002, FLAC (tracks+.cue), lossless
Треклист:
Franz Koglmann & Lee Konitz / We Thought About Duke
Жанр: Free Jazz, Hat Hut Records
Страна-производитель диска: Switzerland
Год издания: 2002
Издатель (лейбл): Hat Hut Records
Номер по каталогу: hatOLOGY 543
Аудиокодек: FLAC (*.flac)
Тип рипа: tracks+.cue
Битрейт аудио: lossless
Продолжительность: 56:26
Источник (релизер): Max Monteiro
Наличие сканов в содержимом раздачи: нет
Треклист:
01. Lament for Javanette (Duke Ellington) 5:16
02. Ko-Ko (Duke Ellington) 4:14
03. Zweet Zurzday (Duke Ellington & Billy Strayhorn) 8:01
04. Thoughts About Duke I (Franz Koglmann) 6:30
05. Thoughts About Duke II (Franz Koglmann) 4:34
06. Love Is in My Heart (Duke Ellington) 5:29
07. Pyramid (Juan Tizol) 5:52
08. Thoughts About Duke III (Franz Koglmann) 4:33
09. The Mooche (Duke Ellington) 5:49
10. Dirge (Billy Strayhorn) 6:08
All arrangements by Franz Koglmann.
 
Лог создания рипа
Exact Audio Copy V1.0 beta 3 from 29. August 2011
EAC extraction logfile from 31. May 2013, 22:41
Franz Koglmann & Lee Konitz / We Thought About Duke
Used drive : SlimtypeeNAU508 5 Adapter: 1 ID: 0
Read mode : Secure
Utilize accurate stream : Yes
Defeat audio cache : Yes
Make use of C2 pointers : No
Read offset correction : 6
Overread into Lead-In and Lead-Out : No
Fill up missing offset samples with silence : Yes
Delete leading and trailing silent blocks : No
Null samples used in CRC calculations : Yes
Used interface : Native Win32 interface for Win NT & 2000
Gap handling : Appended to previous track
Used output format : User Defined Encoder
Selected bitrate : 768 kBit/s
Quality : High
Add ID3 tag : No
Command line compressor : C:\Program Files (x86)\Exact Audio Copy\Flac\flac.exe
Additional command line options : -8 -V -T "ARTIST=%artist%" -T "TITLE=%title%" -T "ALBUM=%albumtitle%" -T "DATE=%year%" -T "TRACKNUMBER=%tracknr%" -T "GENRE=%genre%" -T "PERFORMER=%albuminterpret%" -T "COMPOSER=%composer%" %haslyrics%--tag-from-file=LYRICS="%lyricsfile%"%haslyrics% -T "ALBUMARTIST=%albumartist%" -T "DISCNUMBER=%cdnumber%" -T "TOTALDISCS=%totalcds%" -T "TOTALTRACKS=%numtracks%" -T "COMMENT=%comment%" %source% -o %dest%
TOC of the extracted CD
Track | Start | Length | Start sector | End sector
---------------------------------------------------------
1 | 0:00.00 | 5:15.62 | 0 | 23686
2 | 5:15.62 | 4:14.00 | 23687 | 42736
3 | 9:29.62 | 8:01.00 | 42737 | 78811
4 | 17:30.62 | 6:30.00 | 78812 | 108061
5 | 24:00.62 | 4:34.00 | 108062 | 128611
6 | 28:34.62 | 5:29.00 | 128612 | 153286
7 | 34:03.62 | 5:52.00 | 153287 | 179686
8 | 39:55.62 | 4:33.00 | 179687 | 200161
9 | 44:28.62 | 5:49.00 | 200162 | 226336
10 | 50:17.62 | 6:08.13 | 226337 | 253949
Track 1
Filename C:\EAC rips\01 - Lament for Javanette.wav
Pre-gap length 0:00:02.00
Peak level 55.1 %
Extraction speed 2.2 X
Track quality 100.0 %
Test CRC 4EC3F69E
Copy CRC 4EC3F69E
Accurately ripped (confidence 3) [C8FE99F2] (AR v1)
Copy OK
Track 2
Filename C:\EAC rips\02 - Ko-Ko.wav
Peak level 91.3 %
Extraction speed 2.4 X
Track quality 100.0 %
Test CRC C6F19D78
Copy CRC C6F19D78
Accurately ripped (confidence 3) [1F08BB11] (AR v1)
Copy OK
Track 3
Filename C:\EAC rips\03 - Zweet Zursday.wav
Peak level 64.7 %
Extraction speed 2.9 X
Track quality 100.0 %
Test CRC 081F2084
Copy CRC 081F2084
Accurately ripped (confidence 3) [F896F711] (AR v1)
Copy OK
Track 4
Filename C:\EAC rips\04 - Thoughts About Duke I.wav
Peak level 80.2 %
Extraction speed 3.1 X
Track quality 100.0 %
Test CRC 28A0F309
Copy CRC 28A0F309
Accurately ripped (confidence 3) [F20B2A60] (AR v1)
Copy OK
Track 5
Filename C:\EAC rips\05 - Thoughts About Duke II.wav
Peak level 73.8 %
Extraction speed 3.2 X
Track quality 100.0 %
Test CRC B6231AB6
Copy CRC B6231AB6
Accurately ripped (confidence 3) [7A9232B6] (AR v1)
Copy OK
Track 6
Filename C:\EAC rips\06 - Love Is in My Heart.wav
Peak level 69.2 %
Extraction speed 3.0 X
Track quality 99.9 %
Test CRC 6D783F55
Copy CRC 6D783F55
Accurately ripped (confidence 3) [9FEC85A9] (AR v1)
Copy OK
Track 7
Filename C:\EAC rips\07 - Pyramid.wav
Peak level 69.5 %
Extraction speed 3.7 X
Track quality 100.0 %
Test CRC C1C6AC3C
Copy CRC C1C6AC3C
Accurately ripped (confidence 3) [5648B084] (AR v1)
Copy OK
Track 8
Filename C:\EAC rips\08 - Thoughts About Duke III.wav
Peak level 91.1 %
Extraction speed 3.7 X
Track quality 100.0 %
Test CRC FE21BA90
Copy CRC FE21BA90
Accurately ripped (confidence 3) [C8A23CBC] (AR v1)
Copy OK
Track 9
Filename C:\EAC rips\09 - The Mooche.wav
Peak level 82.7 %
Extraction speed 4.0 X
Track quality 100.0 %
Test CRC 91EEE250
Copy CRC 91EEE250
Accurately ripped (confidence 3) [219E5446] (AR v1)
Copy OK
Track 10
Filename C:\EAC rips\10 - Dirge.wav
Peak level 91.5 %
Extraction speed 3.7 X
Track quality 99.9 %
Test CRC 1EAFD0CF
Copy CRC 1EAFD0CF
Accurately ripped (confidence 3) [AF345572] (AR v1)
Copy OK
All tracks accurately ripped
No errors occurred
End of status report
---- CUETools DB Plugin V2.1.4
[CTDB TOCID: kvuxJPVpzK5zDrnaah0ApyEqczs-] found
Submit result: kvuxJPVpzK5zDrnaah0ApyEqczs- has been confirmed
Track | CTDB Status
1 | (3/3) Accurately ripped
2 | (3/3) Accurately ripped
3 | (3/3) Accurately ripped
4 | (3/3) Accurately ripped
5 | (3/3) Accurately ripped
6 | (3/3) Accurately ripped
7 | (3/3) Accurately ripped
8 | (3/3) Accurately ripped
9 | (3/3) Accurately ripped
10 | (3/3) Accurately ripped
==== Log checksum 9D0EE4FDEB229FD113CD76D196FE1F8101383A5A4437AA1A51B9B040BC750B33 ====
 
Содержание индексной карты (.CUE)
REM GENRE Jazz
REM DATE 2002
REM DISCID 780D3A0A
REM COMMENT "ExactAudioCopy v1.0b3"
PERFORMER "Franz Koglmann & Lee Konitz"
TITLE "We Thought About Duke"
FILE "01 - Lament for Javanette.wav" WAVE
TRACK 01 AUDIO
TITLE "Lament for Javanette"
PERFORMER "Monoblue Quartet & Lee Konitz"
INDEX 01 00:00:00
FILE "02 - Ko-Ko.wav" WAVE
TRACK 02 AUDIO
TITLE "Ko-Ko"
PERFORMER "Pipe Trio & Lee Konitz"
INDEX 01 00:00:00
FILE "03 - Zweet Zursday.wav" WAVE
TRACK 03 AUDIO
TITLE "Zweet Zursday"
PERFORMER "Monoblue Quartet & Lee Konitz"
INDEX 01 00:00:00
FILE "04 - Thoughts About Duke I.wav" WAVE
TRACK 04 AUDIO
TITLE "Thoughts About Duke I"
PERFORMER "Pipe Trio"
INDEX 01 00:00:00
FILE "05 - Thoughts About Duke II.wav" WAVE
TRACK 05 AUDIO
TITLE "Thoughts About Duke II"
PERFORMER "Monoblue Quartet & Lee Konitz"
INDEX 01 00:00:00
FILE "06 - Love Is in My Heart.wav" WAVE
TRACK 06 AUDIO
TITLE "Love Is in My Heart"
PERFORMER "Monoblue Quartet & Lee Konitz"
INDEX 01 00:00:00
FILE "07 - Pyramid.wav" WAVE
TRACK 07 AUDIO
TITLE "Pyramid"
PERFORMER "Pipe Trio & Lee Konitz"
INDEX 01 00:00:00
FILE "08 - Thoughts About Duke III.wav" WAVE
TRACK 08 AUDIO
TITLE "Thoughts About Duke III"
PERFORMER "Pipe Trio & Lee Konitz"
INDEX 01 00:00:00
FILE "09 - The Mooche.wav" WAVE
TRACK 09 AUDIO
TITLE "The Mooche"
PERFORMER "Monoblue Quartet & Lee Konitz"
INDEX 01 00:00:00
FILE "10 - Dirge.wav" WAVE
TRACK 10 AUDIO
TITLE "Dirge"
PERFORMER "Pipe Trio & Lee Konitz"
INDEX 01 00:00:00
Доп. информация: Recorded at Tic-Music Studio, Achau on June 6-9, 1994.
 
Состав
Monoblue Quartet on 1, 3, 5, 6, 9 :
Tony Coe – Clarinet, Tenor Saxophone
Franz Koglmann – Trumpet, Flugelhorn
Burkhard Stangl – Guitar
Klaus Koch – Bass
&
Lee Konitz – Alto Saxophone
Pipe Trio on 2, 4, 7, 8, 10 (4 without Lee Konitz) :

Franz Koglmann – Trumpet, Flugelhorn
Rudolf Ruschel – Trombone
Raoul Herget – Tuba
&
Lee Konitz – Alto Saxophone
Any questions -> support@pro-jazz.com. По всем вопросам пишите -> support@pro-jazz.com
14:46
314
Нет комментариев. Ваш будет первым!