Поиск

(Contemporary Jazz, Modern Composition) Paolo Damiani (feat. Paolo Fresu, Gianluca Petrella) - Ladybird - 2004, APE (tracks+.cue), lossless

(Contemporary Jazz, Modern Composition) Paolo Damiani (feat. Paolo Fresu, Gianluca Petrella) - Ladybird - 2004, APE (tracks+.cue), lossless
Треклист:
Paolo Damiani / Ladybird
Жанр: Contemporary Jazz, Modern Composition
Страна-производитель диска: Italy
Год издания: 2004
Издатель (лейбл): EGEA
Номер по каталогу: SCA 111
Страна: Italy
Аудиокодек: APE (*.ape)
Тип рипа: tracks+.cue
Битрейт аудио: lossless
Продолжительность: 56:29
Источник (релизер): ed2k
Наличие сканов в содержимом раздачи:
Треклист:
1 Habla Del Sur 5:41
2 Era Destino 5:54
3 L'Amor Messo Da Parte 6:20
4 Tango Lento 3:42
5 Quello Che Non Voglio 8:59
6 Cos'è Che Ti Fa Andare Così 5:19
7 Argentiera 4:52
8 Ladybird 6:39
9 Nel Mare Sconfinato Di Un Segreto 8:56
 
Лог создания рипа
EAC extraction logfile from 7. January 2008, 22:23 for CD
Paolo Damiani / Ladybird'04 Egea
Used drive : HL-DT-STDVDRAM GSA-H10A Adapter: 1 ID: 0
Read mode : Secure with NO C2, accurate stream, disable cache
Read offset correction : 667
Overread into Lead-In and Lead-Out : No
Used output format : C:\Archivos de programa\Exact Audio Copy\MAC.exe (Monkey's Audio Lossless Encoder)
Extra High Lossless Compression
Additional command line options : --alt-preset extreme
Other options :
Fill up missing offset samples with silence : Yes
Delete leading and trailing silent blocks : No
Native Win32 interface for Win NT & 2000
Track 1
Filename G:\comp emule aсadir\Paolo Damiani - Ladybird'04 Egea\01 - Habla del sur.wav
Peak level 94.4 %
Track quality 100.0 %
Copy CRC C49B8C97
Copy OK
Track 2
Filename G:\comp emule aсadir\Paolo Damiani - Ladybird'04 Egea\02 - Era destino.wav
Peak level 94.3 %
Track quality 100.0 %
Copy CRC B00D66EA
Copy OK
Track 3
Filename G:\comp emule aсadir\Paolo Damiani - Ladybird'04 Egea\03 - L'amor messo da parte.wav
Peak level 94.4 %
Track quality 100.0 %
Copy CRC 45B12726
Copy OK
Track 4
Filename G:\comp emule aсadir\Paolo Damiani - Ladybird'04 Egea\04 - Tango lento.wav
Peak level 94.4 %
Track quality 100.0 %
Copy CRC 67AB4E2E
Copy OK
Track 5
Filename G:\comp emule aсadir\Paolo Damiani - Ladybird'04 Egea\05 - Quello che non voglio.wav
Peak level 94.4 %
Track quality 100.0 %
Copy CRC AADD24BE
Copy OK
Track 6
Filename G:\comp emule aсadir\Paolo Damiani - Ladybird'04 Egea\06 - Cos'e che ti fa andar cosi.wav
Peak level 94.4 %
Track quality 99.9 %
Copy CRC 237CF1D9
Copy OK
Track 7
Filename G:\comp emule aсadir\Paolo Damiani - Ladybird'04 Egea\07 - Argentiera.wav
Peak level 94.4 %
Track quality 100.0 %
Copy CRC 80C1A7E3
Copy OK
Track 8
Filename G:\comp emule aсadir\Paolo Damiani - Ladybird'04 Egea\08 - Ladybird.wav
Peak level 94.4 %
Track quality 99.9 %
Copy CRC 31D7F976
Copy OK
Track 9
Filename G:\comp emule aсadir\Paolo Damiani - Ladybird'04 Egea\09 - Nel mare sconfinato di un segreto.wav
Peak level 94.4 %
Track quality 100.0 %
Copy CRC 0F80E5BA
Copy OK
No errors occured
End of status report
 
Содержание индексной карты (.CUE)
PERFORMER "Paolo Damiani"
TITLE "Ladybird'04 Egea"
FILE "01 - Habla del sur.wav" WAVE
TRACK 01 AUDIO
TITLE "Habla del sur"
PERFORMER "Paolo Damiani"
INDEX 01 00:00:00
TRACK 02 AUDIO
TITLE "Era destino"
PERFORMER "Paolo Damiani"
INDEX 00 05:39:14
FILE "02 - Era destino.wav" WAVE
INDEX 01 00:00:00
TRACK 03 AUDIO
TITLE "L'amor messo da parte"
PERFORMER "Paolo Damiani"
INDEX 00 05:52:66
FILE "03 - L'amor messo da parte.wav" WAVE
INDEX 01 00:00:00
TRACK 04 AUDIO
TITLE "Tango lento"
PERFORMER "Paolo Damiani"
INDEX 00 06:19:46
FILE "04 - Tango lento.wav" WAVE
INDEX 01 00:00:00
TRACK 05 AUDIO
TITLE "Quello che non voglio"
PERFORMER "Paolo Damiani"
INDEX 00 03:40:12
FILE "05 - Quello che non voglio.wav" WAVE
INDEX 01 00:00:00
TRACK 06 AUDIO
TITLE "Cos'e che ti fa andar cosi"
PERFORMER "Paolo Damiani"
INDEX 00 08:58:26
FILE "06 - Cos'e che ti fa andar cosi.wav" WAVE
INDEX 01 00:00:00
TRACK 07 AUDIO
TITLE "Argentiera"
PERFORMER "Paolo Damiani"
INDEX 00 05:17:50
FILE "07 - Argentiera.wav" WAVE
INDEX 01 00:00:00
TRACK 08 AUDIO
TITLE "Ladybird"
PERFORMER "Paolo Damiani"
INDEX 00 04:50:53
FILE "08 - Ladybird.wav" WAVE
INDEX 01 00:00:00
TRACK 09 AUDIO
TITLE "Nel mare sconfinato di un segreto"
PERFORMER "Paolo Damiani"
INDEX 00 06:38:00
FILE "09 - Nel mare sconfinato di un segreto.wav" WAVE
INDEX 01 00:00:00
 
Лог проверки качества
d:\>d:\aucdtect -d/-m0 d:\zzz\*.wav
auCDtect: CD records authenticity detector, version 0.8.2
Copyright (c) 2004 Oleg Berngardt. All rights reserved.
Copyright (c) 2004 Alexander Djourik. All rights reserved.
------------------------------------------------------------
Processing file: [Argentiera.wav]
------------------------------------------------------------
This track looks like CDDA with probability 100%
------------------------------------------------------------
Processing file: [Cos'e che ti fa andar cosi.wav]
------------------------------------------------------------
This track looks like CDDA with probability 100%
------------------------------------------------------------
Processing file: [Era destino.wav]
------------------------------------------------------------
This track looks like CDDA with probability 100%
------------------------------------------------------------
Processing file: [Habla del sur.wav]
------------------------------------------------------------
This track looks like CDDA with probability 100%
------------------------------------------------------------
Processing file: [L'amor messo da parte.wav]
------------------------------------------------------------
This track looks like CDDA with probability 100%
------------------------------------------------------------
Processing file: [Ladybird.wav]
------------------------------------------------------------
This track looks like CDDA with probability 100%
------------------------------------------------------------
Processing file: [Nel mare sconfinato di un se...wav]
------------------------------------------------------------
This track looks like CDDA with probability 100%
------------------------------------------------------------
Processing file: [Quello che non voglio.wav]
------------------------------------------------------------
This track looks like CDDA with probability 100%
------------------------------------------------------------
Processing file: [Tango lento.wav]
------------------------------------------------------------
This track looks like CDDA with probability 58%
------------------------------------------------------------
Final Conclusion:
------------------------------------------------------------
These tracks looks like CDDA with probability 100%
 
Состав
Alto Saxophone, Bass Clarinet – Achille Succi
Contrabass, Cello – Paolo Damiani
Drums – Roberto Dani
Guitar – Bebo Ferra
Percussion, Electronics – Fulvio Maras
Trombone – Gianluca Petrella
Trumpet, Flugelhorn – Paolo Fresu
Voice – Diana Torto
По всем вопросам пишите личное сообщение пользователю M0p94ok.
14:47
207
Нет комментариев. Ваш будет первым!