Вы используете незарегистрированную версию компонента "Вкладки"!

Поиск

(Contemporary jazz) Art Ensemble Of Chicago - Reunion - 2004, FLAC (tracks+.cue), lossless

(Contemporary jazz) Art Ensemble Of Chicago - Reunion - 2004, FLAC (tracks+.cue), lossless
Треклист:
Art Ensemble Of Chicago - Reunion
Жанр: Contemporary jazz
Страна-производитель диска: Italy
Год издания: 2004
Издатель (лейбл): Around Jazz Il Manifesto
Номер по каталогу: 122
Аудиокодек: FLAC (*.flac)
Тип рипа: tracks+.cue
Битрейт аудио: lossless
Продолжительность: 61 min.
Источник (релизер): собственный рип с оригинального диска.
Наличие сканов в содержимом раздачи: да
Треклист:
01. Illinstrum
02. T Two Twin
03. Wolonà
04. Ce Soir a Bankoni
05. Hail We Now Sing Joy
06. Medley
- All in Together
- Zero
- Alternate Line
- Odwalla
07. Urban Bushmen
 
Лог создания рипа
Exact Audio Copy V1.0 beta 3 from 29. August 2011
EAC extraction logfile from 8. June 2013, 16:00
Art Ensemble of Chicago / Reunion - Live in Roma
Used drive : TSSTcorpCDDVDW SH-S222A Adapter: 1 ID: 0
Read mode : Secure
Utilize accurate stream : Yes
Defeat audio cache : Yes
Make use of C2 pointers : No
Read offset correction : 6
Overread into Lead-In and Lead-Out : No
Fill up missing offset samples with silence : Yes
Delete leading and trailing silent blocks : No
Null samples used in CRC calculations : Yes
Used interface : Native Win32 interface for Win NT & 2000
Gap handling : Appended to previous track
Used output format : User Defined Encoder
Selected bitrate : 896 kBit/s
Quality : High
Add ID3 tag : No
Command line compressor : C:\Tool\CD\EAC10\FLAC\FLAC.EXE
Additional command line options : -8 -V -T "ARTIST=%artist%" -T "TITLE=%title%" -T "ALBUM=%albumtitle%" -T "DATE=%year%" -T "TRACKNUMBER=%tracknr%" -T "GENRE=%genre%" -T "PERFORMER=%albuminterpret%" -T "COMPOSER=%composer%" %haslyrics%--tag-from-file=LYRICS="%lyricsfile%"%haslyrics% -T "ALBUMARTIST=%albumartist%" -T "ALBUM ARTIST=%albumartist%" -T "DISCNUMBER=%cdnumber%" -T "TOTALDISCS=%totalcds%" -T "TOTALTRACKS=%numtracks%" -T "COMMENT=EAC V1.0 beta 3, Secure Mode, Test & Copy, AccurateRip, FLAC -8" %source% -o %dest%
TOC of the extracted CD
Track | Start | Length | Start sector | End sector
---------------------------------------------------------
1 | 0:00.00 | 10:09.46 | 0 | 45720
2 | 10:09.46 | 5:57.54 | 45721 | 72549
3 | 16:07.25 | 4:41.74 | 72550 | 93698
4 | 20:49.24 | 4:33.09 | 93699 | 114182
5 | 25:22.33 | 5:59.63 | 114183 | 141170
6 | 31:22.21 | 23:11.21 | 141171 | 245516
7 | 54:33.42 | 6:28.09 | 245517 | 274625
Track 1
Filename C:\! UPLOAD\Art Ensemble Of Chicago - Reunion (2003) [FLAC]\01 - Illinstrum.wav
Pre-gap length 0:00:02.00
Peak level 98.8 %
Extraction speed 5.4 X
Track quality 100.0 %
Test CRC 689FE26E
Copy CRC 689FE26E
Accurately ripped (confidence 2) [93A402AA] (AR v2)
Copy OK
Track 2
Filename C:\! UPLOAD\Art Ensemble Of Chicago - Reunion (2003) [FLAC]\02 - T Two Twin.wav
Peak level 78.5 %
Extraction speed 6.1 X
Track quality 100.0 %
Test CRC D2E655C7
Copy CRC D2E655C7
Accurately ripped (confidence 2) [FD7310A1] (AR v2)
Copy OK
Track 3
Filename C:\! UPLOAD\Art Ensemble Of Chicago - Reunion (2003) [FLAC]\03 - Wolona.wav
Peak level 98.3 %
Extraction speed 6.4 X
Track quality 100.0 %
Test CRC DC56D6D4
Copy CRC DC56D6D4
Accurately ripped (confidence 2) [2E7945AF] (AR v2)
Copy OK
Track 4
Filename C:\! UPLOAD\Art Ensemble Of Chicago - Reunion (2003) [FLAC]\04 - Ce soir a Bankoni.wav
Peak level 78.5 %
Extraction speed 6.7 X
Track quality 100.0 %
Test CRC 656D64B2
Copy CRC 656D64B2
Accurately ripped (confidence 2) [4DAEE3E8] (AR v2)
Copy OK
Track 5
Filename C:\! UPLOAD\Art Ensemble Of Chicago - Reunion (2003) [FLAC]\05 - Hail We Now Sing Joy.wav
Peak level 88.1 %
Extraction speed 6.3 X
Track quality 99.9 %
Test CRC 8600F1BC
Copy CRC 8600F1BC
Accurately ripped (confidence 2) [06F8AD58] (AR v2)
Copy OK
Track 6
Filename C:\! UPLOAD\Art Ensemble Of Chicago - Reunion (2003) [FLAC]\06 - Medley (All In Together, Zero, Alternate Line, Odwalla).wav
Peak level 88.1 %
Extraction speed 8.9 X
Track quality 100.0 %
Test CRC 94A7080B
Copy CRC 94A7080B
Accurately ripped (confidence 2) [15752A02] (AR v2)
Copy OK
Track 7
Filename C:\! UPLOAD\Art Ensemble Of Chicago - Reunion (2003) [FLAC]\07 - Urban Bushmen.wav
Peak level 98.8 %
Extraction speed 7.9 X
Track quality 99.9 %
Test CRC 16F6D82B
Copy CRC 16F6D82B
Accurately ripped (confidence 2) [B7A9CE86] (AR v2)
Copy OK
All tracks accurately ripped
No errors occurred
End of status report
---- CUETools DB Plugin V2.1.3
[CTDB TOCID: H80RU1BQsP1vkrwxXsfPv2CjoqM-] found, Submit result: H80RU1BQsP1vkrwxXsfPv2CjoqM- has been confirmed
[afdcdd97] (1/1) Accurately ripped
==== Log checksum 18FA2666A80C2504635DC2E6E794DF18EF49D2CB01065E5F3E2F48ED8C633E1A ====
 
Содержание индексной карты (.CUE)
REM GENRE Jazz
REM DATE 2004
REM DISCID 5D0E4D07
REM COMMENT "ExactAudioCopy v1.0b3"
PERFORMER "Art Ensemble of Chicago"
TITLE "Reunion - Live in Roma"
FILE "01 - Illinstrum.wav" WAVE
TRACK 01 AUDIO
TITLE "Illinstrum"
PERFORMER "Art Ensemble of Chicago"
INDEX 01 00:00:00
FILE "02 - T Two Twin.wav" WAVE
TRACK 02 AUDIO
TITLE "T Two Twin"
PERFORMER "Art Ensemble of Chicago"
INDEX 01 00:00:00
FILE "03 - Wolona.wav" WAVE
TRACK 03 AUDIO
TITLE "Wolona"
PERFORMER "Art Ensemble of Chicago"
INDEX 01 00:00:00
FILE "04 - Ce soir a Bankoni.wav" WAVE
TRACK 04 AUDIO
TITLE "Ce soir a Bankoni"
PERFORMER "Art Ensemble of Chicago"
INDEX 01 00:00:00
FILE "05 - Hail We Now Sing Joy.wav" WAVE
TRACK 05 AUDIO
TITLE "Hail We Now Sing Joy"
PERFORMER "Art Ensemble of Chicago"
INDEX 01 00:00:00
FILE "06 - Medley (All In Together, Zero, Alternate Line, Odwalla).wav" WAVE
TRACK 06 AUDIO
TITLE "Medley (All In Together, Zero, Alternate Line, Odwalla)"
PERFORMER "Art Ensemble of Chicago"
INDEX 01 00:00:00
FILE "07 - Urban Bushmen.wav" WAVE
TRACK 07 AUDIO
TITLE "Urban Bushmen"
PERFORMER "Art Ensemble of Chicago"
INDEX 01 00:00:00
Доп. информация:
Recorded at Centro Rai di Produzione Radiofonica in Rome in January 2003
 
Об исполнителе
Celebrating the return of Joseph Jarman in the group after a ten-years absence period.
 
Состав
Joseph Jarman - sopranino saxophone, alto saxophone, tenor saxophone, percussion, wood percussion, voice, flute, small instruments
Roscoe Mitchell - alto saxophone, soprano saxophone, flute, percussion, small instruments
Malachi Favors - bass, percussion, small instruments
Famoudou Don Moye - drums, congas, small instruments
Baba Sissoko - 'ngoni, tama
По всем вопросам пишите личное сообщение пользователю M0p94ok.
14:48
227
Нет комментариев. Ваш будет первым!