Вы используете незарегистрированную версию компонента "Вкладки"!

Поиск

(Avant-Garde Jazz, Free Jazz) Cecil Taylor - Conquistador! - 1966 (1998 Japan Edition), FLAC (tracks+.cue), lossless

(Avant-Garde Jazz, Free Jazz) Cecil Taylor - Conquistador! - 1966 (1998 Japan Edition), FLAC (tracks+.cue), lossless
Треклист:
Cecil Taylor - Conquistador!
Жанр: Avant-Garde Jazz, Free Jazz
Страна-производитель диска: Япония
Год издания: 1966 (1998)
Издатель (лейбл): Blue Note/Toshiba-EMI
Номер по каталогу: TOCJ-4260 (BN Works HS 20.88 CD)
Страна: США
Аудиокодек: FLAC (*.flac)
Тип рипа: tracks+.cue
Битрейт аудио: lossless
Продолжительность: 37:12
Источник (релизер): scalpel (what)
Наличие сканов в содержимом раздачи: нет
Треклист:
01. Conquistador (Taylor) - 17:55
02. With (Exit) (Taylor) - 19:17
Состав:
Bill Dixon - trumpet
Jimmy Lyons - alto saxophone
Cecil Taylor - piano
Henry Grimes, Alan Silva - bass
Andrew Cyrille - drums
Recorded at the Van Gelder Studio, Englewood Cliffs, NJ on October 6, 1966.
 
Лог создания рипа
Exact Audio Copy V1.0 beta 1 from 15. November 2010
EAC extraction logfile from 26. January 2011, 0:55
Cecil Taylor / Conquistador
Used drive : hp CDDVDW TS-L633N Adapter: 0 ID: 0
Read mode : Secure
Utilize accurate stream : Yes
Defeat audio cache : Yes
Make use of C2 pointers : No
Read offset correction : 6
Overread into Lead-In and Lead-Out : No
Fill up missing offset samples with silence : Yes
Delete leading and trailing silent blocks : No
Null samples used in CRC calculations : Yes
Used interface : Native Win32 interface for Win NT & 2000
Gap handling : Appended to previous track
Used output format : User Defined Encoder
Selected bitrate : 128 kBit/s
Quality : High
Add ID3 tag : No
Command line compressor : C:\Program Files (x86)\Exact Audio Copy\Flac\flac.exe
Additional command line options : -8 -V -T "ARTIST=%a" -T "TITLE=%t" -T "ALBUM=%g" -T "DATE=%y" -T "TRACKNUMBER=%n" -T "TOTALTRACKS=%x" -T "GENRE=%m" -T "ALBUMARTIST=%v" -T "ALBUM ARTIST=%v" -T "COMMENT=EAC Secure Mode, Test & Copy, AccurateRip, FLAC -8" %s
TOC of the extracted CD
Track | Start | Length | Start sector | End sector
---------------------------------------------------------
1 | 0:00.00 | 17:54.50 | 0 | 80599
2 | 17:54.50 | 19:17.37 | 80600 | 167411
Track 1
Filename C:\Users\HP Computer\Desktop\cecil\01 - Conquistador.wav
Pre-gap length 0:00:02.00
Peak level 99.2 %
Extraction speed 1.4 X
Track quality 100.0 %
Test CRC 624D6F10
Copy CRC 624D6F10
Track not present in AccurateRip database
Copy OK
Track 2
Filename C:\Users\HP Computer\Desktop\cecil\02 - With (Exit).wav
Pre-gap length 0:00:03.23
Peak level 99.9 %
Extraction speed 1.9 X
Track quality 100.0 %
Test CRC 6EE62836
Copy CRC 6EE62836
Track not present in AccurateRip database
Copy OK
None of the tracks are present in the AccurateRip database
No errors occurred
End of status report
==== Log checksum 9C1C63B8ACB0F46179603983DC19F6F21AB6914DB894C37C7FC3EC71352E6B6D ====
 
Содержание индексной карты (.CUE)
REM GENRE Jazz
REM DATE 1966
REM DISCID 1008B802
REM COMMENT "ExactAudioCopy v1.0b1"
PERFORMER "Cecil Taylor"
TITLE "Conquistador!"
FILE "01 - Conquistador.wav" WAVE
TRACK 01 AUDIO
TITLE "Conquistador"
PERFORMER "Cecil Taylor"
INDEX 01 00:00:00
TRACK 02 AUDIO
TITLE "With (Exit)"
PERFORMER "Cecil Taylor"
INDEX 00 17:51:27
FILE "02 - With (Exit).wav" WAVE
INDEX 01 00:00:00
 
Отчет CUETools
[CUETools log; Date: 15.06.2013 14:27:11; Version: 2.1.4]
[CTDB TOCID: gJS7GKKQDqbXTHEC2icIiQgwrug-] found.
Track | CTDB Status
1 | (1/1) Accurately ripped
2 | (1/1) Accurately ripped
[AccurateRip ID: 0003c8cc-000a1f8d-1008b802] found.
Track [ CRC | V2 ] Status
01 [26d3702e|2ec1772b] (0+0/2) No match
02 [d911c7f3|b1b04823] (0+0/2) No match
Offsetted by -46:
01 [a2c87730] (2/2) Accurately ripped
02 [c65874cd] (2/2) Accurately ripped
Track Peak [ CRC32 ] [W/O NULL] [ LOG ]
-- 99,9 [1955FF68] [66C7B491]
01 99,2 [624D6F10] [B4A41CA9] CRC32
02 99,9 [6EE62836] [2ED9A20C] CRC32
 
Review by Scott Yanow
For the second of Cecil Taylor's two Blue Note albums (following Unit Structures), the innovative pianist utilized a sextet comprised of trumpeter Bill Dixon, altoist Jimmy Lyons, both Henry Grimes and Alan Silva on basses and drummer Andrew Cyrille. During the two lengthy pieces, Lyons' passionate solos contrast with Dixon's quieter ruminations while the music in general is unremittingly intense. Both of the Taylor Blue Notes are quite historic and near-classics but, despite this important documentation, Cecil Taylor (other than a pair of Paris concerts) would not appear on records again until 1973.
(Free Jazz) Cecil Taylor - Conquistador! {RVG Edition} - 1966, FLAC (tracks+.cue), lossless
(Avant-Garde Jazz, Free Improvisation) Cecil Taylor - Conquistador (1966) - 1987, FLAC (image+.cue), lossless
(Free Jazz, Avant-Garde Jazz) [LP][24/96] Cecil Taylor - Conquistador! - 1966 (Japan, reissue 1984), FLAC (tracks)
Any questions -> support@pro-jazz.com. По всем вопросам пишите -> support@pro-jazz.com
14:48
195
Нет комментариев. Ваш будет первым!