Вы используете незарегистрированную версию компонента "Вкладки"!

Поиск

(Avant-garde Jazz) Peter Van Huffel`s Gorilla Mask - Howl! - 2012, FLAC (image+.cue), lossless

(Avant-garde Jazz) Peter Van Huffel`s Gorilla Mask - Howl! - 2012, FLAC (image+.cue), lossless
Треклист:
Peter Van Huffel`s Gorilla Mask / Howl!
Жанр: Avant-garde Jazz
Страна-производитель диска: Germany
Год издания: 2012
Издатель (лейбл): Between The Lines
Номер по каталогу: BTLCHR 71232
Аудиокодек: FLAC (*.flac)
Тип рипа: image+.cue
Битрейт аудио: lossless
Продолжительность: 57:35
Источник (релизер): cd
Наличие сканов в содержимом раздачи: нет
Треклист:
1 Legendarious 5:42
2 Z 7:31
3 Fire Burning 7:59
4 Monkey`s Revenge 5:43
5 Dirty City 6:03
6 Haven`t You Learned Your Lesson Yet ? 4:41
7 Iggy`s Secret 7:58
8 Fucked 2:59
9 Angry Monster 8:59
 
Лог создания рипа
Exact Audio Copy V1.0 beta 2 from 29. April 2011
EAC extraction logfile from 15. June 2013, 17:12
Peter Van Huffel`s Gorilla Mask / Howl!
Used drive : Optiarc DVD RW AD-7170A Adapter: 0 ID: 0
Read mode : Secure
Utilize accurate stream : Yes
Defeat audio cache : Yes
Make use of C2 pointers : No
Read offset correction : 48
Overread into Lead-In and Lead-Out : No
Fill up missing offset samples with silence : Yes
Delete leading and trailing silent blocks : No
Null samples used in CRC calculations : Yes
Used interface : Native Win32 interface for Win NT & 2000
Used output format : User Defined Encoder
Selected bitrate : 320 kBit/s
Quality : High
Add ID3 tag : No
Command line compressor : C:\Program Files\Exact Audio Copy\Flac\flac.exe
Additional command line options : -V -8 -T "Date=%year%" -T "Genre=%genre%" %source%
TOC of the extracted CD
Track | Start | Length | Start sector | End sector
---------------------------------------------------------
1 | 0:00.00 | 5:41.66 | 0 | 25640
2 | 5:41.66 | 7:31.15 | 25641 | 59480
3 | 13:13.06 | 7:59.01 | 59481 | 95406
4 | 21:12.07 | 5:43.09 | 95407 | 121140
5 | 26:55.16 | 6:02.67 | 121141 | 148357
6 | 32:58.08 | 4:40.59 | 148358 | 169416
7 | 37:38.67 | 7:58.16 | 169417 | 205282
8 | 45:37.08 | 2:58.55 | 205283 | 218687
9 | 48:35.63 | 8:59.37 | 218688 | 259149
Range status and errors
Selected range
Filename K:\ЕАС\Peter Van Huffel`s Gorilla Mask - Howl!.wav
Peak level 99.9 %
Extraction speed 1.9 X
Range quality 100.0 %
Test CRC 3B3DD238
Copy CRC 3B3DD238
Copy OK
No errors occurred
AccurateRip summary
Track 1 not present in database
Track 2 not present in database
Track 3 not present in database
Track 4 not present in database
Track 5 not present in database
Track 6 not present in database
Track 7 not present in database
Track 8 not present in database
Track 9 not present in database
None of the tracks are present in the AccurateRip database
End of status report
==== Log checksum EC8E2F267BF3DFCE580D63837577C256DA2B216A8804414B189CFA3161E4D5C1 ====
 
Содержание индексной карты (.CUE)
FILE "Peter Van Huffel`s Gorilla Mask - Howl!.flac" WAVE
TRACK 01 AUDIO
TITLE "Legendarious"
PERFORMER "Peter Van Huffel`s Gorilla Mask"
ISRC DEBN31200183
INDEX 01 00:00:00
TRACK 02 AUDIO
TITLE "Z "
PERFORMER "Peter Van Huffel`s Gorilla Mask"
ISRC DEBN31200184
INDEX 00 05:39:28
INDEX 01 05:41:66
TRACK 03 AUDIO
TITLE "Fire Burning"
PERFORMER "Peter Van Huffel`s Gorilla Mask"
ISRC DEBN31200185
INDEX 00 13:09:11
INDEX 01 13:13:06
TRACK 04 AUDIO
TITLE "Monkey`s Revenge"
PERFORMER "Peter Van Huffel`s Gorilla Mask"
ISRC DEBN31200186
INDEX 00 21:09:27
INDEX 01 21:12:07
TRACK 05 AUDIO
TITLE "Dirty City"
PERFORMER "Peter Van Huffel`s Gorilla Mask"
ISRC DEBN31200187
INDEX 00 26:53:04
INDEX 01 26:55:16
TRACK 06 AUDIO
TITLE "Haven`t You Learned Your Lesson Yet"
PERFORMER "Peter Van Huffel`s Gorilla Mask"
ISRC DEBN31200188
INDEX 00 32:54:52
INDEX 01 32:58:08
TRACK 07 AUDIO
TITLE "Iggy`s Secret"
PERFORMER "Peter Van Huffel`s Gorilla Mask"
ISRC DEBN31200189
INDEX 00 37:36:36
INDEX 01 37:38:67
TRACK 08 AUDIO
TITLE "Fucked"
PERFORMER "Peter Van Huffel`s Gorilla Mask"
ISRC DEBN31200190
INDEX 00 45:35:19
INDEX 01 45:37:08
TRACK 09 AUDIO
TITLE "Angry Monster"
PERFORMER "Peter Van Huffel`s Gorilla Mask"
ISRC DEBN31200191
INDEX 00 48:33:49
INDEX 01 48:35:63
 
Об альбоме (сборнике)
It has been said by many people many different ways that silence was the best song ever written and us humans have taken it upon ourselves ever since to improve on it. Peter Van Huffel decides to throw away the notion of a subtle addition to nothingness in exchange for a power trio sound that embodies part Rush and part The Thing. Huffel (alto sax, composer) and his band Gorilla Mask consisting of Roland Fidezius (bass) and Rudi Fischerlehner (drums) take us down a path where there is anything but silence, where they sometimes shake hands and sometimes butt heads.
I feel the pull.
On the one hand they are a heavy rock band with an alto sax filling in a lead vocal as it were. On tracks such as "Fucked", the rhythm is meticulous and comes complete with a big fat drum solo section. Then there is the other side, their free, wandering side displayed on such tracks as "Fire Burning" and "Monkey's Revenge" but I was still finding it difficult to describe exactly what I was hearing. I was missing a connection, something to get me hooked into Huffel's vision. Then it hit me.
I have to play it loud.
Out came the earbuds and on the stereo it went, loud, and man does this album benefit from volume, as much of it as you can give it. Tracks like "Dirty City", a distant cousin to Zeppelin's "Immigrant Song" come blasting out at me. I forgot that I was even trying to understand my connection to the music and just sat back with my head nodding to the beat and my fingers tapping on the arms of my chair. At this volume you can really hear just how good Huffel is. His ideas are full of abandon and he gets it all out quickly, sometimes very quickly. On "Z", he punches over the pulses of the band until he lets loose over the heavily distorted interlude.
I play it again.
Gorilla Mask have saved the best for first. "Legendarious", is their mission statement, their blueprint and their compass all wrapped up in their style of heavy, free, mad, and fun. On "Iggy's Secret", the band plays what seems to be a lullaby for a troubled child.
As much as I enjoyed my new found appreciation for this record a little piece of me still wonders what a solo record by Huffel would sound like or at the very least an album with a band with a little less Howl!
 
Состав
Acoustic Bass – Roland Fidezius
Alto Saxophone, Composed By – Peter Van Huffel
Drums, Percussion – Rudi Fischerlehner
Any questions -> support@pro-jazz.com. По всем вопросам пишите -> support@pro-jazz.com
14:49
170
Нет комментариев. Ваш будет первым!