Вы используете незарегистрированную версию компонента "Вкладки"!

Поиск

(Free Jazz) Grencso Collective - MU Theater Festival - 2002, FLAC (tracks+.cue) lossless

Треклист:
Grencso Collective - MU Theater Festival
Жанр: Free Jazz
Страна-производитель диска: Hungary
Год издания диска: 2002
Издатель (лейбл): Harmónia Produkció
Номер по каталогу: HCD233-5
Аудио кодек: FLAC (*.flac)
Тип рипа: tracks+.cue
Битрейт аудио: lossless
Продолжительность: 57:54
Источник (релизер): собственный рип с оригинального диска.
Наличие сканов в содержимом раздачи: да
Треклист:
01. Part 01
02. Part 02
03. Part 03
04. Part 04
05. Part 05
06. Part 06
07. Part 07
 
Лог создания рипа
Exact Audio Copy V0.99 prebeta 5 from 4. May 2009
EAC extraction logfile from 9. April 2011, 19:31
Grencso Collective / MU Theather Festival
Used drive : TSSTcorpCDDVDW SH-S222A Adapter: 1 ID: 0
Read mode : Secure
Utilize accurate stream : Yes
Defeat audio cache : Yes
Make use of C2 pointers : No
Read offset correction : 6
Overread into Lead-In and Lead-Out : No
Fill up missing offset samples with silence : Yes
Delete leading and trailing silent blocks : No
Null samples used in CRC calculations : Yes
Used interface : Installed external ASPI interface
Gap handling : Appended to previous track
Used output format : User Defined Encoder
Selected bitrate : 768 kBit/s
Quality : High
Add ID3 tag : No
Command line compressor : C:\Tool\Compress\FLAC\flac.exe
Additional command line options : -8 -V -T "ARTIST=%a" -T "TITLE=%t" -T "ALBUM=%g" -T "DATE=%y" -T "TRACKNUMBER=%n" -T "TOTALTRACKS=%x" -T "GENRE=%m" -T "ALBUM ARTIST=%v" -T "COMMENT=EAC V0.99 prebeta 5, Secure Mode, Test & Copy, AccurateRip, FLAC -8" %s
TOC of the extracted CD
Track | Start | Length | Start sector | End sector
---------------------------------------------------------
1 | 0:00.00 | 11:39.05 | 0 | 52429
2 | 11:39.05 | 9:36.07 | 52430 | 95636
3 | 21:15.12 | 11:05.68 | 95637 | 145579
4 | 32:21.05 | 5:21.10 | 145580 | 169664
5 | 37:42.15 | 6:08.54 | 169665 | 197318
6 | 43:50.69 | 6:51.46 | 197319 | 228189
7 | 50:42.40 | 7:14.51 | 228190 | 260790
Track 1
Filename C:\! UPLOAD\Grencso Collective - MU Theater Festival (2002) [FLAC] {Harmonia}\01 - Part 01.wav
Pre-gap length 0:00:02.00
Peak level 93.7 %
Track quality 100.0 %
Test CRC 56C54761
Copy CRC 56C54761
Track not present in AccurateRip database
Copy OK
Track 2
Filename C:\! UPLOAD\Grencso Collective - MU Theater Festival (2002) [FLAC] {Harmonia}\02 - Part 02.wav
Peak level 83.7 %
Track quality 100.0 %
Test CRC 782241CC
Copy CRC 782241CC
Track not present in AccurateRip database
Copy OK
Track 3
Filename C:\! UPLOAD\Grencso Collective - MU Theater Festival (2002) [FLAC] {Harmonia}\03 - Part 03.wav
Peak level 78.4 %
Track quality 100.0 %
Test CRC F9794C3A
Copy CRC F9794C3A
Track not present in AccurateRip database
Copy OK
Track 4
Filename C:\! UPLOAD\Grencso Collective - MU Theater Festival (2002) [FLAC] {Harmonia}\04 - Part 04.wav
Peak level 67.8 %
Track quality 99.9 %
Test CRC 6AD52296
Copy CRC 6AD52296
Track not present in AccurateRip database
Copy OK
Track 5
Filename C:\! UPLOAD\Grencso Collective - MU Theater Festival (2002) [FLAC] {Harmonia}\05 - Part 05.wav
Peak level 94.3 %
Track quality 100.0 %
Test CRC C2A15632
Copy CRC C2A15632
Track not present in AccurateRip database
Copy OK
Track 6
Filename C:\! UPLOAD\Grencso Collective - MU Theater Festival (2002) [FLAC] {Harmonia}\06 - Part 06.wav
Peak level 94.3 %
Track quality 100.0 %
Test CRC DD61E650
Copy CRC DD61E650
Track not present in AccurateRip database
Copy OK
Track 7
Filename C:\! UPLOAD\Grencso Collective - MU Theater Festival (2002) [FLAC] {Harmonia}\07 - Part 07.wav
Peak level 89.1 %
Track quality 99.9 %
Test CRC 7547D16F
Copy CRC 7547D16F
Track not present in AccurateRip database
Copy OK
None of the tracks are present in the AccurateRip database
No errors occurred
End of status report
 
Содержание индексной карты (.CUE)
REM GENRE "Free Jazz"
REM DATE 2002
REM DISCID 520D9507
REM COMMENT "ExactAudioCopy v0.99pb5"
PERFORMER "Grencso Collective"
TITLE "MU Theather Festival"
FILE "01 - Part 01.wav" WAVE
TRACK 01 AUDIO
TITLE "Part 01"
PERFORMER "Grencso Collective"
INDEX 01 00:00:00
FILE "02 - Part 02.wav" WAVE
TRACK 02 AUDIO
TITLE "Part 02"
PERFORMER "Grencso Collective"
INDEX 01 00:00:00
FILE "03 - Part 03.wav" WAVE
TRACK 03 AUDIO
TITLE "Part 03"
PERFORMER "Grencso Collective"
INDEX 01 00:00:00
FILE "04 - Part 04.wav" WAVE
TRACK 04 AUDIO
TITLE "Part 04"
PERFORMER "Grencso Collective"
INDEX 01 00:00:00
FILE "05 - Part 05.wav" WAVE
TRACK 05 AUDIO
TITLE "Part 05"
PERFORMER "Grencso Collective"
INDEX 01 00:00:00
FILE "06 - Part 06.wav" WAVE
TRACK 06 AUDIO
TITLE "Part 06"
PERFORMER "Grencso Collective"
INDEX 01 00:00:00
FILE "07 - Part 07.wav" WAVE
TRACK 07 AUDIO
TITLE "Part 07"
PERFORMER "Grencso Collective"
INDEX 01 00:00:00
Доп. информация:
Recorded live at Györfree Workshop Festival at Budapest Autumn Festival in MU Theater, Budapest, Oct. 25-26-27, 2002
 
Об исполнителе (группе)
"The Györfree music and spiritual Workshop was established in Györ in 2002 [...] Its goal is to perpetuate and develop Hungarian music and the spirit of the music that already had a great role in the famous jazz concerts in Györ in the 1980s; they have become not only an organic part of the national music world but have also become important internationally. The Györfree Workshop would like to be the mediator of new music in the millennium along the lines of the foundations of musical tradition and improvisation. With its organisation of workshops, concerts, and record publishing activities, it would like to serve this purpose." (György Szabados)
 
Состав
István Grencsó - sax, flute
Róbert Benkö - double bass
György Jeszenszky - drums
Any questions -> support@pro-jazz.com. По всем вопросам пишите -> support@pro-jazz.com
12:52
149
Нет комментариев. Ваш будет первым!