Вы используете незарегистрированную версию компонента "Вкладки"!

Поиск

(Jazz, Avant-Garde,) Grencso Collective Plus - Seven Songs to the Last Mohicans - 2001, FLAC (tracks+.cue) lossless

Треклист:
Grencso Collective Plus - Seven Songs to the Last Mohicans
Жанр: Jazz, Avant-Garde,
Страна-производитель диска: Hungary
Год издания диска: 2001
Издатель (лейбл): Bahia
Номер по каталогу: CDB 065
Аудио кодек: FLAC (*.flac)
Тип рипа: tracks+.cue
Битрейт аудио: lossless
Продолжительность: 45:53
Источник (релизер): собственный рип с оригинального диска.
Наличие сканов в содержимом раздачи: да
Треклист:
01. First Song, Part One 3:20
02. First Song, Part Two 3:29
03. Second Song, Part One 3:18
04. Second Song, Part Two 3:54
05. Third Song 7:43
06. Fourth Song 5:50
07. Fifth Song 3:46
08. Sixth Song, Part One 4:13
09. Sixth Song, Part Two 5:16
10. Seventh Song, Part One 2:28
11. Seventh Song, Part Two 2:36
 
Лог создания рипа
Exact Audio Copy V0.99 prebeta 5 from 4. May 2009
EAC extraction logfile from 9. April 2011, 13:46
Grencso Collective Plusz / Seven Songs To The Last Mohicans
Used drive : TSSTcorpCDDVDW SH-S222A Adapter: 1 ID: 0
Read mode : Secure
Utilize accurate stream : Yes
Defeat audio cache : Yes
Make use of C2 pointers : No
Read offset correction : 6
Overread into Lead-In and Lead-Out : No
Fill up missing offset samples with silence : Yes
Delete leading and trailing silent blocks : No
Null samples used in CRC calculations : Yes
Used interface : Installed external ASPI interface
Gap handling : Appended to previous track
Used output format : User Defined Encoder
Selected bitrate : 768 kBit/s
Quality : High
Add ID3 tag : No
Command line compressor : C:\Tool\Compress\FLAC\flac.exe
Additional command line options : -8 -V -T "ARTIST=%a" -T "TITLE=%t" -T "ALBUM=%g" -T "DATE=%y" -T "TRACKNUMBER=%n" -T "TOTALTRACKS=%x" -T "GENRE=%m" -T "ALBUM ARTIST=%v" -T "COMMENT=EAC V0.99 prebeta 5, Secure Mode, Test & Copy, AccurateRip, FLAC -8" %s
TOC of the extracted CD
Track | Start | Length | Start sector | End sector
---------------------------------------------------------
1 | 0:00.00 | 3:20.51 | 0 | 15050
2 | 3:20.51 | 3:29.74 | 15051 | 30799
3 | 6:50.50 | 3:18.50 | 30800 | 45699
4 | 10:09.25 | 3:54.21 | 45700 | 63270
5 | 14:03.46 | 7:43.61 | 63271 | 98056
6 | 21:47.32 | 5:50.62 | 98057 | 124368
7 | 27:38.19 | 3:46.14 | 124369 | 141332
8 | 31:24.33 | 4:13.26 | 141333 | 160333
9 | 35:37.59 | 5:16.65 | 160334 | 184098
10 | 40:54.49 | 2:28.16 | 184099 | 195214
11 | 43:22.65 | 2:36.49 | 195215 | 206963
Track 1
Filename C:\! UPLOAD\Grencso Collective Plusz - Seven Songs To The Last Mohicans (2001) [FLAC] {Bahia}\01 - First Song, Part One.wav
Pre-gap length 0:00:02.00
Peak level 91.9 %
Track quality 100.0 %
Test CRC C0A623AF
Copy CRC C0A623AF
Accurately ripped (confidence 1) [6551CDAE]
Copy OK
Track 2
Filename C:\! UPLOAD\Grencso Collective Plusz - Seven Songs To The Last Mohicans (2001) [FLAC] {Bahia}\02 - First Song, Part Two.wav
Peak level 85.9 %
Track quality 100.0 %
Test CRC E597188E
Copy CRC E597188E
Accurately ripped (confidence 1) [82D40973]
Copy OK
Track 3
Filename C:\! UPLOAD\Grencso Collective Plusz - Seven Songs To The Last Mohicans (2001) [FLAC] {Bahia}\03 - Second Song, Part One.wav
Peak level 37.4 %
Track quality 100.0 %
Test CRC 3D72EF55
Copy CRC 3D72EF55
Accurately ripped (confidence 1) [7B356F13]
Copy OK
Track 4
Filename C:\! UPLOAD\Grencso Collective Plusz - Seven Songs To The Last Mohicans (2001) [FLAC] {Bahia}\04 - Second Song, Part Two.wav
Peak level 90.7 %
Track quality 100.0 %
Test CRC 5ADC37C6
Copy CRC 5ADC37C6
Accurately ripped (confidence 1) [197236AC]
Copy OK
Track 5
Filename C:\! UPLOAD\Grencso Collective Plusz - Seven Songs To The Last Mohicans (2001) [FLAC] {Bahia}\05 - Third Song.wav
Peak level 64.1 %
Track quality 100.0 %
Test CRC 4DC13313
Copy CRC 4DC13313
Accurately ripped (confidence 1) [F949880A]
Copy OK
Track 6
Filename C:\! UPLOAD\Grencso Collective Plusz - Seven Songs To The Last Mohicans (2001) [FLAC] {Bahia}\06 - Fourth Song.wav
Peak level 94.0 %
Track quality 100.0 %
Test CRC BDD9197A
Copy CRC BDD9197A
Accurately ripped (confidence 1) [3DE64AA4]
Copy OK
Track 7
Filename C:\! UPLOAD\Grencso Collective Plusz - Seven Songs To The Last Mohicans (2001) [FLAC] {Bahia}\07 - Fifth Song.wav
Peak level 75.4 %
Track quality 100.0 %
Test CRC C675B845
Copy CRC C675B845
Accurately ripped (confidence 1) [16A13C29]
Copy OK
Track 8
Filename C:\! UPLOAD\Grencso Collective Plusz - Seven Songs To The Last Mohicans (2001) [FLAC] {Bahia}\08 - Sixth Song, Part One.wav
Peak level 65.9 %
Track quality 99.9 %
Test CRC AE17C313
Copy CRC AE17C313
Accurately ripped (confidence 1) [5CFEE013]
Copy OK
Track 9
Filename C:\! UPLOAD\Grencso Collective Plusz - Seven Songs To The Last Mohicans (2001) [FLAC] {Bahia}\09 - Sixth Song, Part Two.wav
Peak level 76.3 %
Track quality 100.0 %
Test CRC 569BD2C7
Copy CRC 569BD2C7
Accurately ripped (confidence 1) [B40FDD32]
Copy OK
Track 10
Filename C:\! UPLOAD\Grencso Collective Plusz - Seven Songs To The Last Mohicans (2001) [FLAC] {Bahia}\10 - Seventh Song, Part One.wav
Peak level 89.7 %
Track quality 100.0 %
Test CRC 87094315
Copy CRC 87094315
Accurately ripped (confidence 1) [7A631D66]
Copy OK
Track 11
Filename C:\! UPLOAD\Grencso Collective Plusz - Seven Songs To The Last Mohicans (2001) [FLAC] {Bahia}\11 - Seventh Song, Part Two.wav
Peak level 99.9 %
Track quality 100.0 %
Test CRC 20F3979F
Copy CRC 20F3979F
Accurately ripped (confidence 1) [EE529438]
Copy OK
All tracks accurately ripped
No errors occurred
End of status report
 
Содержание индексной карты (.CUE)
REM GENRE Jazz
REM DATE 2001
REM DISCID 830AC70B
REM COMMENT "ExactAudioCopy v0.99pb5"
PERFORMER "Grencso Collective Plusz"
TITLE "Seven Songs To The Last Mohicans"
FILE "01 - First Song, Part One.wav" WAVE
TRACK 01 AUDIO
TITLE "First Song, Part One"
PERFORMER "Grencso Collective Plusz"
INDEX 01 00:00:00
FILE "02 - First Song, Part Two.wav" WAVE
TRACK 02 AUDIO
TITLE "First Song, Part Two"
PERFORMER "Grencso Collective Plusz"
INDEX 01 00:00:00
FILE "03 - Second Song, Part One.wav" WAVE
TRACK 03 AUDIO
TITLE "Second Song, Part One"
PERFORMER "Grencso Collective Plusz"
INDEX 01 00:00:00
FILE "04 - Second Song, Part Two.wav" WAVE
TRACK 04 AUDIO
TITLE "Second Song, Part Two"
PERFORMER "Grencso Collective Plusz"
INDEX 01 00:00:00
FILE "05 - Third Song.wav" WAVE
TRACK 05 AUDIO
TITLE "Third Song"
PERFORMER "Grencso Collective Plusz"
INDEX 01 00:00:00
FILE "06 - Fourth Song.wav" WAVE
TRACK 06 AUDIO
TITLE "Fourth Song"
PERFORMER "Grencso Collective Plusz"
INDEX 01 00:00:00
FILE "07 - Fifth Song.wav" WAVE
TRACK 07 AUDIO
TITLE "Fifth Song"
PERFORMER "Grencso Collective Plusz"
INDEX 01 00:00:00
FILE "08 - Sixth Song, Part One.wav" WAVE
TRACK 08 AUDIO
TITLE "Sixth Song, Part One"
PERFORMER "Grencso Collective Plusz"
INDEX 01 00:00:00
FILE "09 - Sixth Song, Part Two.wav" WAVE
TRACK 09 AUDIO
TITLE "Sixth Song, Part Two"
PERFORMER "Grencso Collective Plusz"
INDEX 01 00:00:00
FILE "10 - Seventh Song, Part One.wav" WAVE
TRACK 10 AUDIO
TITLE "Seventh Song, Part One"
PERFORMER "Grencso Collective Plusz"
INDEX 01 00:00:00
FILE "11 - Seventh Song, Part Two.wav" WAVE
TRACK 11 AUDIO
TITLE "Seventh Song, Part Two"
PERFORMER "Grencso Collective Plusz"
INDEX 01 00:00:00
Доп. информация:
Recorded 2000.11.14-15.
 
Об исполнителе (группе)
Multi-reed artist Istvan Grencso's music is more playful, eclectic and risky than Dresch's, though his fascination with Hungarian ethnic music and jazz-based improvisation is just as strong. Unlike Dresch, Grencso is very active as a sideman and collaborator in a number of groups, including the Tickmayer Formatio (led by keyboardist Stephen Tickmayer, a recent associate of ex-Henry Cow drummer Chris Cutler), and Makam, a progressive instrumental folk band. Though the basic configuration of the Kollektiva is a reeds - bass (acoustic or electric) - drums trio, its size and instrumentation varies with the musical task at hand. On "Seven Songs...", Grencso augments his working trio with an electric guitarist, a violinist / vocalist and, on selected pieces, two turntablists and a vocal trio. The result is nothing less than kaliedoscopic.
Stylistically, "Seven Songs..." is all over the map, though it never feels like the product of fashion-driven eclecticism. Over the course of the CD, Grencso successfully integrates Gregorian chant (Second Song-II, Seventh Song-II), weird rock (Second Song-II, Fifth Song, Sixth Song II), and funk (First Song-II, Fourth Song, Seventh Song-II), with free / modern jazz and Hungarian folk / ethnic influences to produce some very striking and memorable music. Some of these pieces are haunting, and creepily evocative of some
impending disaster (First Song-I). Others are joyous, raucous celebrations with just a tinge of regret.
Grencso's musicianship is outstanding, as is that of his group.
Primarily an alto saxophonist with Dresch, Szabados, and on previous Kollektiva recordings, here, Grencso concentrates on tenor and soprano sax. He's an excellent player - imaginative, full of fire, and not afraid to investigate the outer limits of his instruments.
Bassist Robert Benko might just be Hungary's answer to Charlie Haden - he's a percussive player with an ear for melodies and dark harmonies, and Grencso gives him many opportunities to shine. Gabi Kenderesi's voice is also a huge asset. She has a wide stylistic range, and her largely wordless, vibratoless singing is emotive and soulful without being cute or cloying. Guitarist Csaba Hajnoczy is not really a jazz player, per se. His very brittle, very electric tone and penchant for dissonant, tortured tonal clusters recalls advanced rockers such as Fripp, Frith and Zappa rather than Frisell, McLaughlin or Metheny. On the less frenzied tunes (Third Song, Sixth Song-II), he resorts to well-articulated phrases played with a clean, crystalline sound. Due, perhaps, to the larger ensemble size, drummer Gyorgy Jeszenszky keeps a much lower profile here than on the previous Grencso Kollektiva recordings. The singers and turntablists are not just pasted on to attract attention: their striking and unusual contributions underscore the feelings of chaos, and peace, that Grencso is trying to express.
 
Состав
István Grencsó - tenor and soprano saxophone, accordion, whistle
Róbert Benkö - double bass, violoncello
György Jeszenszky - drums
Gabi Kenderesi - vocals
Csaba Hajnóczy - guitar
Csaba Gyulai - vocals
András Koncz - vocals
Zoltán Mizsei - vocals
DJ Mangó - loops
DJ Shuriken - loops
Any questions -> support@pro-jazz.com. По всем вопросам пишите -> support@pro-jazz.com
12:51
195
Нет комментариев. Ваш будет первым!