Вы используете незарегистрированную версию компонента "Вкладки"!

Поиск

(Fusion, Free Funk, Modern Creative) Wadada Leo Smith's Organic - Heart's Reflections (2cd) - 2011, FLAC (tracks+.cue) lossless

(Fusion, Free Funk, Modern Creative) Wadada Leo Smith's Organic - Heart's Reflections (2cd) - 2011, FLAC (tracks+.cue) lossless
Треклист:
Wadada Leo Smith's Organic / Heart's Reflections
Жанр: Fusion, Free Funk, Modern Creative
Страна-производитель диска: США
Год издания диска: 2011
Издатель (лейбл): Cuneiform
Номер по каталогу: RUNE 330/331
Страна: США
Аудио кодек: FLAC (*.flac)
Тип рипа: tracks+.cue
Битрейт аудио: lossless
Продолжительность: 1:54:06
Источник (релизер): вот.сиди (ipof)
Наличие сканов в содержимом раздачи: нет
Треклист:
CD1
1. Don Cherry's Electic Sonic Garden
2. The Dhikr Of Radiant Hearts, Part I
3. The Dhikr Of Radiant Hearts, Part II
4. The Majestic Way
5. The Shaykh, As Far As Humaythira
6. Spiritual Wayfarers
7. Certainty
8. Ritual Purity And Love, Part I
9. Ritual Purity And Love, Part II
CD2
1. Silsila
2. From Bitter To Fresh Sweet Water Pt.I
3. From Bitter To Fresh Sweet Water, Pt.II
4. The Black Hole (Sagittarius A)/Conscience And Epic Memory (For Toni Morrison)
5. Leroy Jenkins's Air Steps (For Leroy Jenkins)
 
Лог создания рипа
X Lossless Decoder version 20110515 (133.1)
XLD extraction logfile from 2011-05-28 16:26:40 -0500
Wadad Leo Smith's Organic / Heart's Reflections
Used drive : HL-DT-ST DVDRW GSA-S10N (revision BP10)
Ripper mode : CDParanoia III 10.2
Disable audio cache : OK for the drive with a cache less than 2750KiB
Make use of C2 pointers : NO
Read offset correction : 667
Max retry count : 100
Gap status : Analyzed, Appended
TOC of the extracted CD
Track | Start | Length | Start sector | End sector
---------------------------------------------------------
1 | 00:00:00 | 20:50:10 | 0 | 93759
2 | 20:50:10 | 02:32:65 | 93760 | 105224
3 | 23:23:00 | 06:27:25 | 105225 | 134274
4 | 29:50:25 | 09:12:47 | 134275 | 175721
5 | 39:02:72 | 07:29:05 | 175722 | 209401
6 | 46:32:02 | 06:10:58 | 209402 | 237209
7 | 52:42:60 | 05:24:05 | 237210 | 261514
8 | 58:06:65 | 03:34:42 | 261515 | 277606
9 | 61:41:32 | 02:31:38 | 277607 | 288969
AccurateRip Summary
Disc not found in AccurateRip DB.
All Tracks
Album gain : -6.78 dB
Peak : 1.000000
Statistics
Read error : 0
Skipped (treated as error) : 0
Edge jitter error (maybe fixed) : 0
Atom jitter error (maybe fixed) : 0
Drift error (maybe fixed) : 0
Dropped bytes error (maybe fixed) : 0
Duplicated bytes error (maybe fixed) : 0
Track 01
Filename : /Volumes/The Ego's Last Stand/torrents/uploads/01 Wadad Leo Smith's Organic - Don Cherr'y Electic Sonic Garden.flac
Pre-gap length : 00:02:00
Track gain : -6.84 dB
Peak : 0.999969
CRC32 hash (test run) : 4FDF5EF3
CRC32 hash : 4FDF5EF3
CRC32 hash (skip zero) : 58F400B1
AccurateRip signature : 35CCA05E
->Track not present in AccurateRip database.
Statistics
Read error : 0
Skipped (treated as error) : 0
Edge jitter error (maybe fixed) : 0
Atom jitter error (maybe fixed) : 0
Drift error (maybe fixed) : 0
Dropped bytes error (maybe fixed) : 0
Duplicated bytes error (maybe fixed) : 0
Inconsistency in error sectors : 0
Track 02
Filename : /Volumes/The Ego's Last Stand/torrents/uploads/02 Wadad Leo Smith's Organic - The Dhikr of Radiant Hearts, Part I.flac
Track gain : -7.35 dB
Peak : 1.000000
CRC32 hash (test run) : 885C4E55
CRC32 hash : 885C4E55
CRC32 hash (skip zero) : 42901069
AccurateRip signature : D5AA9330
->Track not present in AccurateRip database.
Statistics
Read error : 0
Skipped (treated as error) : 0
Edge jitter error (maybe fixed) : 0
Atom jitter error (maybe fixed) : 0
Drift error (maybe fixed) : 0
Dropped bytes error (maybe fixed) : 0
Duplicated bytes error (maybe fixed) : 0
Inconsistency in error sectors : 0
Track 03
Filename : /Volumes/The Ego's Last Stand/torrents/uploads/03 Wadad Leo Smith's Organic - The Dhikr of Radiant Hearts, Part II.flac
Track gain : -4.93 dB
Peak : 0.996094
CRC32 hash (test run) : 8E81C36D
CRC32 hash : 8E81C36D
CRC32 hash (skip zero) : 32B31EFC
AccurateRip signature : 44E5904E
->Track not present in AccurateRip database.
Statistics
Read error : 0
Skipped (treated as error) : 0
Edge jitter error (maybe fixed) : 0
Atom jitter error (maybe fixed) : 0
Drift error (maybe fixed) : 0
Dropped bytes error (maybe fixed) : 0
Duplicated bytes error (maybe fixed) : 0
Inconsistency in error sectors : 0
Track 04
Filename : /Volumes/The Ego's Last Stand/torrents/uploads/04 Wadad Leo Smith's Organic - The Majestic Way.flac
Track gain : -6.49 dB
Peak : 0.998871
CRC32 hash (test run) : 99D079E2
CRC32 hash : 99D079E2
CRC32 hash (skip zero) : 430CBC09
AccurateRip signature : EFE067E7
->Track not present in AccurateRip database.
Statistics
Read error : 0
Skipped (treated as error) : 0
Edge jitter error (maybe fixed) : 0
Atom jitter error (maybe fixed) : 0
Drift error (maybe fixed) : 0
Dropped bytes error (maybe fixed) : 0
Duplicated bytes error (maybe fixed) : 0
Inconsistency in error sectors : 0
Track 05
Filename : /Volumes/The Ego's Last Stand/torrents/uploads/05 Wadad Leo Smith's Organic - The Shaykh, as far as Humaythira.flac
Track gain : -7.00 dB
Peak : 1.000000
CRC32 hash (test run) : BBC1B96F
CRC32 hash : BBC1B96F
CRC32 hash (skip zero) : 4BC028AA
AccurateRip signature : E5F9B2C6
->Track not present in AccurateRip database.
Statistics
Read error : 0
Skipped (treated as error) : 0
Edge jitter error (maybe fixed) : 0
Atom jitter error (maybe fixed) : 0
Drift error (maybe fixed) : 0
Dropped bytes error (maybe fixed) : 0
Duplicated bytes error (maybe fixed) : 0
Inconsistency in error sectors : 0
Track 06
Filename : /Volumes/The Ego's Last Stand/torrents/uploads/06 Wadad Leo Smith's Organic - Spiritual Wayfarers.flac
Track gain : -6.75 dB
Peak : 0.996490
CRC32 hash (test run) : 70A3E766
CRC32 hash : 70A3E766
CRC32 hash (skip zero) : 5A173CE8
AccurateRip signature : 56065C97
->Track not present in AccurateRip database.
Statistics
Read error : 0
Skipped (treated as error) : 0
Edge jitter error (maybe fixed) : 0
Atom jitter error (maybe fixed) : 0
Drift error (maybe fixed) : 0
Dropped bytes error (maybe fixed) : 0
Duplicated bytes error (maybe fixed) : 0
Inconsistency in error sectors : 0
Track 07
Filename : /Volumes/The Ego's Last Stand/torrents/uploads/07 Wadad Leo Smith's Organic - Certainty.flac
Track gain : -8.03 dB
Peak : 1.000000
CRC32 hash (test run) : 0A10EDF1
CRC32 hash : 0A10EDF1
CRC32 hash (skip zero) : 93641E5F
AccurateRip signature : 9FAE7816
->Track not present in AccurateRip database.
Statistics
Read error : 0
Skipped (treated as error) : 0
Edge jitter error (maybe fixed) : 0
Atom jitter error (maybe fixed) : 0
Drift error (maybe fixed) : 0
Dropped bytes error (maybe fixed) : 0
Duplicated bytes error (maybe fixed) : 0
Inconsistency in error sectors : 0
Track 08
Filename : /Volumes/The Ego's Last Stand/torrents/uploads/08 Wadad Leo Smith's Organic - Ritual Purity and Love, Part I.flac
Track gain : -4.97 dB
Peak : 0.995728
CRC32 hash (test run) : BD806F83
CRC32 hash : BD806F83
CRC32 hash (skip zero) : 21568973
AccurateRip signature : 48F5B64B
->Track not present in AccurateRip database.
Statistics
Read error : 0
Skipped (treated as error) : 0
Edge jitter error (maybe fixed) : 0
Atom jitter error (maybe fixed) : 0
Drift error (maybe fixed) : 0
Dropped bytes error (maybe fixed) : 0
Duplicated bytes error (maybe fixed) : 0
Inconsistency in error sectors : 0
Track 09
Filename : /Volumes/The Ego's Last Stand/torrents/uploads/09 Wadad Leo Smith's Organic - Ritual Purity and Love, Part II.flac
Track gain : -5.88 dB
Peak : 0.996643
CRC32 hash (test run) : 32932EB5
CRC32 hash : 32932EB5
CRC32 hash (skip zero) : 5CF3801F
AccurateRip signature : E12F4CBD
->Track not present in AccurateRip database.
Statistics
Read error : 0
Skipped (treated as error) : 0
Edge jitter error (maybe fixed) : 0
Atom jitter error (maybe fixed) : 0
Drift error (maybe fixed) : 0
Dropped bytes error (maybe fixed) : 0
Duplicated bytes error (maybe fixed) : 0
Inconsistency in error sectors : 0
No errors occurred
End of status report


X Lossless Decoder version 20110515 (133.1)
XLD extraction logfile from 2011-05-28 17:00:16 -0500
Wadad Leo Smith's Organic / Heart's Reflections
Used drive : HL-DT-ST DVDRW GSA-S10N (revision BP10)
Ripper mode : CDParanoia III 10.2
Disable audio cache : OK for the drive with a cache less than 2750KiB
Make use of C2 pointers : NO
Read offset correction : 667
Max retry count : 100
Gap status : Analyzed, Appended
TOC of the extracted CD
Track | Start | Length | Start sector | End sector
---------------------------------------------------------
1 | 00:00:00 | 05:34:45 | 0 | 25094
2 | 05:34:45 | 06:12:47 | 25095 | 53041
3 | 11:47:17 | 05:02:30 | 53042 | 75721
4 | 16:49:47 | 10:35:23 | 75722 | 123369
5 | 27:24:70 | 22:28:37 | 123370 | 224506
AccurateRip Summary
Disc not found in AccurateRip DB.
All Tracks
Album gain : -7.97 dB
Peak : 1.000000
Statistics
Read error : 0
Skipped (treated as error) : 0
Edge jitter error (maybe fixed) : 0
Atom jitter error (maybe fixed) : 0
Drift error (maybe fixed) : 0
Dropped bytes error (maybe fixed) : 0
Duplicated bytes error (maybe fixed) : 0
Track 01
Filename : /Volumes/The Ego's Last Stand/torrents/uploads/01 Wadad Leo Smith's Organic - Heart's Reflections - Splendors of Light and Purification - Silsila.flac
Pre-gap length : 00:02:00
Track gain : -6.89 dB
Peak : 0.999969
CRC32 hash (test run) : 7916BB14
CRC32 hash : 7916BB14
CRC32 hash (skip zero) : 32B882A7
AccurateRip signature : 308C6B55
->Track not present in AccurateRip database.
Statistics
Read error : 0
Skipped (treated as error) : 0
Edge jitter error (maybe fixed) : 0
Atom jitter error (maybe fixed) : 0
Drift error (maybe fixed) : 0
Dropped bytes error (maybe fixed) : 0
Duplicated bytes error (maybe fixed) : 0
Inconsistency in error sectors : 0
Track 02
Filename : /Volumes/The Ego's Last Stand/torrents/uploads/02 Wadad Leo Smith's Organic - Heart's Reflections - Splendors of Light and Purification - The Well - From Bitter to Fresh Sweet Water, Part I.flac
Track gain : -8.60 dB
Peak : 0.999969
CRC32 hash (test run) : 96D02A8A
CRC32 hash : 96D02A8A
CRC32 hash (skip zero) : 3E80FEF9
AccurateRip signature : 082212E2
->Track not present in AccurateRip database.
Statistics
Read error : 0
Skipped (treated as error) : 0
Edge jitter error (maybe fixed) : 0
Atom jitter error (maybe fixed) : 0
Drift error (maybe fixed) : 0
Dropped bytes error (maybe fixed) : 0
Duplicated bytes error (maybe fixed) : 0
Inconsistency in error sectors : 0
Track 03
Filename : /Volumes/The Ego's Last Stand/torrents/uploads/03 Wadad Leo Smith's Organic - Heart's Reflections - Splendors of Light and Purification - The Well - From Bitter to Fresh Sweet Water, Part II.flac
Track gain : -8.76 dB
Peak : 0.999969
CRC32 hash (test run) : 0536F393
CRC32 hash : 0536F393
CRC32 hash (skip zero) : 5C54BFF7
AccurateRip signature : 13D557CA
->Track not present in AccurateRip database.
Statistics
Read error : 0
Skipped (treated as error) : 0
Edge jitter error (maybe fixed) : 0
Atom jitter error (maybe fixed) : 0
Drift error (maybe fixed) : 0
Dropped bytes error (maybe fixed) : 0
Duplicated bytes error (maybe fixed) : 0
Inconsistency in error sectors : 0
Track 04
Filename : /Volumes/The Ego's Last Stand/torrents/uploads/04 Wadad Leo Smith's Organic - The Black Hole - Conscience and Epic Memory (for Toni Morrison).flac
Track gain : -3.65 dB
Peak : 1.000000
CRC32 hash (test run) : 2436749D
CRC32 hash : 2436749D
CRC32 hash (skip zero) : B5723FB4
AccurateRip signature : 48B55558
->Track not present in AccurateRip database.
Statistics
Read error : 0
Skipped (treated as error) : 0
Edge jitter error (maybe fixed) : 0
Atom jitter error (maybe fixed) : 0
Drift error (maybe fixed) : 0
Dropped bytes error (maybe fixed) : 0
Duplicated bytes error (maybe fixed) : 0
Inconsistency in error sectors : 0
Track 05
Filename : /Volumes/The Ego's Last Stand/torrents/uploads/05 Wadad Leo Smith's Organic - Leroy Jenkin's Air Steps (for Leroy Jenkins).flac
Track gain : -8.04 dB
Peak : 1.000000
CRC32 hash (test run) : 45B5AF0F
CRC32 hash : 45B5AF0F
CRC32 hash (skip zero) : 4A003703
AccurateRip signature : 28E80CB4
->Track not present in AccurateRip database.
Statistics
Read error : 0
Skipped (treated as error) : 0
Edge jitter error (maybe fixed) : 0
Atom jitter error (maybe fixed) : 0
Drift error (maybe fixed) : 0
Dropped bytes error (maybe fixed) : 0
Duplicated bytes error (maybe fixed) : 0
Inconsistency in error sectors : 0
No errors occurred
End of status report
 
Содержание индексной карты (.CUE)
TITLE "Heart's Reflections"
PERFORMER "Wadad Leo Smith's Organic"
CATALOG 0045775033020
REM GENRE "Jazz"
REM DATE "2011"
REM DISCNUMBER 1
REM TOTALDISCS 2
REM DISCID 7E0F0C09
FILE "01 Wadad Leo Smith's Organic - Don Cherr'y Electic Sonic Garden.wav" WAVE
TRACK 01 AUDIO
TITLE "Don Cherr'y Electic Sonic Garden"
ISRC US9351133001
INDEX 01 00:00:00
FILE "02 Wadad Leo Smith's Organic - The Dhikr of Radiant Hearts, Part I.wav" WAVE
TRACK 02 AUDIO
TITLE "The Dhikr of Radiant Hearts, Part I"
ISRC US9351133002
INDEX 01 00:00:00
FILE "03 Wadad Leo Smith's Organic - The Dhikr of Radiant Hearts, Part II.wav" WAVE
TRACK 03 AUDIO
TITLE "The Dhikr of Radiant Hearts, Part II"
ISRC US9351133003
INDEX 01 00:00:00
FILE "04 Wadad Leo Smith's Organic - The Majestic Way.wav" WAVE
TRACK 04 AUDIO
TITLE "The Majestic Way"
ISRC US9351133004
INDEX 01 00:00:00
FILE "05 Wadad Leo Smith's Organic - The Shaykh, as far as Humaythira.wav" WAVE
TRACK 05 AUDIO
TITLE "The Shaykh, as far as Humaythira"
ISRC US9351133005
INDEX 01 00:00:00
FILE "06 Wadad Leo Smith's Organic - Spiritual Wayfarers.wav" WAVE
TRACK 06 AUDIO
TITLE "Spiritual Wayfarers"
ISRC US9351133006
INDEX 01 00:00:00
FILE "07 Wadad Leo Smith's Organic - Certainty.wav" WAVE
TRACK 07 AUDIO
TITLE "Certainty"
ISRC US9351133007
INDEX 01 00:00:00
FILE "08 Wadad Leo Smith's Organic - Ritual Purity and Love, Part I.wav" WAVE
TRACK 08 AUDIO
TITLE "Ritual Purity and Love, Part I"
ISRC US9351133008
INDEX 01 00:00:00
FILE "09 Wadad Leo Smith's Organic - Ritual Purity and Love, Part II.wav" WAVE
TRACK 09 AUDIO
TITLE "Ritual Purity and Love, Part II"
ISRC US9351133009
INDEX 01 00:00:00


TITLE "Heart's Reflections"
PERFORMER "Wadad Leo Smith's Organic"
REM GENRE "Jazz"
REM DATE "2011"
REM DISCNUMBER 2
REM TOTALDISCS 2
REM DISCID 320BB105
FILE "01 Wadad Leo Smith's Organic - Heart's Reflections - Splendors of Light and Purification - Silsila.wav" WAVE
TRACK 01 AUDIO
TITLE "Heart's Reflections - Splendors of Light and Purification - Silsila"
ISRC US9351133101
INDEX 01 00:00:00
FILE "02 Wadad Leo Smith's Organic - Heart's Reflections - Splendors of Light and Purification - The Well - From Bitter to Fresh Sweet Water, Part I.wav" WAVE
TRACK 02 AUDIO
TITLE "Heart's Reflections - Splendors of Light and Purification - The Well - From Bitter to Fresh Sweet Water, Part I"
ISRC US9351133102
INDEX 01 00:00:00
FILE "03 Wadad Leo Smith's Organic - Heart's Reflections - Splendors of Light and Purification - The Well - From Bitter to Fresh Sweet Water, Part II.wav" WAVE
TRACK 03 AUDIO
TITLE "Heart's Reflections - Splendors of Light and Purification - The Well - From Bitter to Fresh Sweet Water, Part II"
ISRC US9351133103
INDEX 01 00:00:00
FILE "04 Wadad Leo Smith's Organic - The Black Hole - Conscience and Epic Memory (for Toni Morrison).wav" WAVE
TRACK 04 AUDIO
TITLE "The Black Hole - Conscience and Epic Memory (for Toni Morrison)"
ISRC US9351133104
INDEX 01 00:00:00
FILE "05 Wadad Leo Smith's Organic - Leroy Jenkin's Air Steps (for Leroy Jenkins).wav" WAVE
TRACK 05 AUDIO
TITLE "Leroy Jenkin's Air Steps (for Leroy Jenkins)"
ISRC US9351133105
INDEX 01 00:00:00
 
Лог проверки качества
AUDIOCHECKER v2.0 beta (build 457) - by Dester - opdester@freemail.hu
~~~~~~~~~~~~~~~~~~~~~~~~~~~~~~~~~~
-=== DO NOT EDIT THIS FILE! ===-
Path: ...\Disc 1
01 -=- 01 Wadad Leo Smith's Organic - Don Cherr'y Electic Sonic Garden.flac -=- CDDA (100%)
02 -=- 02 Wadad Leo Smith's Organic - The Dhikr of Radiant Hearts, Part I.flac -=- CDDA (100%)
03 -=- 03 Wadad Leo Smith's Organic - The Dhikr of Radiant Hearts, Part II.flac -=- CDDA (100%)
04 -=- 04 Wadad Leo Smith's Organic - The Majestic Way.flac -=- CDDA (100%)
05 -=- 05 Wadad Leo Smith's Organic - The Shaykh, as far as Humaythira.flac -=- CDDA (100%)
06 -=- 06 Wadad Leo Smith's Organic - Spiritual Wayfarers.flac -=- CDDA (100%)
07 -=- 07 Wadad Leo Smith's Organic - Certainty.flac -=- CDDA (100%)
08 -=- 08 Wadad Leo Smith's Organic - Ritual Purity and Love, Part I.flac -=- CDDA (100%)
09 -=- 09 Wadad Leo Smith's Organic - Ritual Purity and Love, Part II.flac -=- CDDA (100%)
Summary 100,00% CDDA
5149460


AUDIOCHECKER v2.0 beta (build 457) - by Dester - opdester@freemail.hu
~~~~~~~~~~~~~~~~~~~~~~~~~~~~~~~~~~
-=== DO NOT EDIT THIS FILE! ===-
Path: ...\Disc 2
01 -=- 01 Wadad Leo Smith's Organic - Heart's Reflections - Splendors of Light and Purification - Silsila.flac -=- CDDA (99%)
02 -=- 02 Wadad Leo Smith's Organic - Heart's Reflections - Splendors of Light and Purification - The Well - From Bitter to Fresh Sweet Water, Part I.flac -=- CDDA (99%)
03 -=- 03 Wadad Leo Smith's Organic - Heart's Reflections - Splendors of Light and Purification - The Well - From Bitter to Fresh Sweet Water, Part II.flac -=- CDDA (100%)
04 -=- 04 Wadad Leo Smith's Organic - The Black Hole - Conscience and Epic Memory (for Toni Morrison).flac -=- CDDA (100%)
05 -=- 05 Wadad Leo Smith's Organic - Leroy Jenkin's Air Steps (for Leroy Jenkins).flac -=- CDDA (100%)
Summary 99,60% CDDA
53001124
 
Состав
Brandon Ross, Michael Gregory, Lamar Smith, Josh Gerowitz guitars;
Skuli Sverrisson, John Lindberg bass;
Angelica Sanchez acoustic and electric piano;
Stephanie Smith violin;
Casey Anderson alto saxophone;
Casey Butler tenor saxophone;
Mark Trayle, Charlie Burgin laptops;
Pheeroan AkLaff drums;
Wadada Leo Smith acoustic and electric trumpet.
Any questions -> support@pro-jazz.com. По всем вопросам пишите -> support@pro-jazz.com
12:53
183
Нет комментариев. Ваш будет первым!