Вы используете незарегистрированную версию компонента "Вкладки"!

Поиск

(free jazz) Giuseppi Logan - The Giuseppi Logan Project (2011), FLAC (tracks+.cue), lossless

(free jazz) Giuseppi Logan - The Giuseppi Logan Project (2011), FLAC (tracks+.cue), lossless
Треклист:


Giuseppi Logan - The Giuseppi Logan Project (2011)

Жанр: free jazz
Год выпуска: 2011
Издатель (лейбл):Mad King Edmund ‎– SRR12002-CD
Формат: FLAC (tracks+.cue)
Битрейт аудио: lossless
Продолжительность 47`03
Источник: what.cd, sabatobox
Alto Saxophone – Giuseppi Logan
Bass – Larry Roland
Guitar, Effects – Ed Pettersen
Mastered By – Bob Olhsson
Piano – Cooper-Moore
Violin – Tracy Silverman

tracks

1 Spiral 8:03
2 Improv 1 5:45
3 The Occupy Blues 6:33
4 Satin Doll 5:13
5 Improv 2 7:39
6 Sweet Georgia Brown 14:03


 
.log
Exact Audio Copy V1.0 beta 3 from 29. August 2011
EAC extraction logfile from 11. January 2013, 22:17
Giuseppi Logan / The Giuseppi Logan Project
Used drive : PLDS DVD+-RW DH-16AAS Adapter: 0 ID: 0
Read mode : Secure
Utilize accurate stream : Yes
Defeat audio cache : Yes
Make use of C2 pointers : No
Read offset correction : 6
Overread into Lead-In and Lead-Out : No
Fill up missing offset samples with silence : Yes
Delete leading and trailing silent blocks : No
Null samples used in CRC calculations : Yes
Used interface : Native Win32 interface for Win NT & 2000
Gap handling : Appended to previous track
Used output format : User Defined Encoder
Selected bitrate : 1024 kBit/s
Quality : High
Add ID3 tag : No
Command line compressor : C:\Program Files (x86)\Exact Audio Copy\FLAC\FLAC.EXE
Additional command line options : -8 -V -T "ARTIST=%artist%" -T "TITLE=%title%" -T "ALBUM=%albumtitle%" -T "DATE=%year%" -T "TRACKNUMBER=%tracknr%" -T "GENRE=%genre%" -T "PERFORMER=%albuminterpret%" -T "COMPOSER=%composer%" %haslyrics%--tag-from-file=LYRICS="%lyricsfile%"%haslyrics% -T "ALBUMARTIST=%albumartist%" -T "DISCNUMBER=%cdnumber%" -T "TOTALDISCS=%totalcds%" -T "TOTALTRACKS=%numtracks%" -T "COMMENT=%comment%" %source% -o %dest%
TOC of the extracted CD
Track | Start | Length | Start sector | End sector
---------------------------------------------------------
1 | 0:00.00 | 8:04.29 | 0 | 36328
2 | 8:04.29 | 5:43.61 | 36329 | 62114
3 | 13:48.15 | 6:32.37 | 62115 | 91551
4 | 20:20.52 | 5:12.58 | 91552 | 115009
5 | 25:33.35 | 7:28.48 | 115010 | 148657
6 | 33:02.08 | 14:00.48 | 148658 | 211705
Track 1
Filename C:\EAC\Giuseppi Logan - The Giuseppi Logan Project (2011) [FLAC]\01 - Spiral.wav
Pre-gap length 0:00:02.00
Peak level 87.6 %
Extraction speed 3.4 X
Track quality 99.9 %
Test CRC CD26BBAA
Copy CRC CD26BBAA
Track not present in AccurateRip database
Copy OK
Track 2
Filename C:\EAC\Giuseppi Logan - The Giuseppi Logan Project (2011) [FLAC]\02 - Improv 1.wav
Pre-gap length 0:00:03.48
Peak level 87.4 %
Extraction speed 4.4 X
Track quality 100.0 %
Test CRC FEC2F073
Copy CRC FEC2F073
Track not present in AccurateRip database
Copy OK
Track 3
Filename C:\EAC\Giuseppi Logan - The Giuseppi Logan Project (2011) [FLAC]\03 - The Occupy Blues.wav
Pre-gap length 0:00:02.18
Peak level 87.2 %
Extraction speed 4.9 X
Track quality 100.0 %
Test CRC 875F51B3
Copy CRC 875F51B3
Track not present in AccurateRip database
Copy OK
Track 4
Filename C:\EAC\Giuseppi Logan - The Giuseppi Logan Project (2011) [FLAC]\04 - Satin Doll.wav
Pre-gap length 0:00:01.97
Peak level 86.1 %
Extraction speed 5.2 X
Track quality 100.0 %
Test CRC 19148644
Copy CRC 19148644
Track not present in AccurateRip database
Copy OK
Track 5
Filename C:\EAC\Giuseppi Logan - The Giuseppi Logan Project (2011) [FLAC]\05 - Improv 2.wav
Pre-gap length 0:00:02.24
Peak level 87.1 %
Extraction speed 5.8 X
Track quality 100.0 %
Test CRC B1E52B4A
Copy CRC B1E52B4A
Track not present in AccurateRip database
Copy OK
Track 6
Filename C:\EAC\Giuseppi Logan - The Giuseppi Logan Project (2011) [FLAC]\06 - Sweet Georgia Brown.wav
Pre-gap length 0:00:01.96
Peak level 87.3 %
Extraction speed 6.2 X
Track quality 99.9 %
Test CRC C782A291
Copy CRC C782A291
Track not present in AccurateRip database
Copy OK
None of the tracks are present in the AccurateRip database
No errors occurred
End of status report
---- CUETools DB Plugin V2.1.3
[CTDB TOCID: AjH02tzGauq_MIovJm13f.qp9.I-] found, Submit result: already submitted
[52054532] (1/1) Accurately ripped
==== Log checksum 0F504C742FE19D8EF5770F39285F4D949A0FB592268C3243E39AC290A715C4DA ====
 
.cue
REM GENRE "Free Jazz"
REM DATE 2011
REM DISCID 4A0B0606
REM COMMENT "ExactAudioCopy v1.0b3"
PERFORMER "Giuseppi Logan"
TITLE "The Giuseppi Logan Project"
FILE "01 - Spiral.wav" WAVE
TRACK 01 AUDIO
TITLE "Spiral"
PERFORMER "Giuseppi Logan"
INDEX 01 00:00:00
TRACK 02 AUDIO
TITLE "Improv 1"
PERFORMER "Giuseppi Logan"
INDEX 00 08:00:68
FILE "02 - Improv 1.wav" WAVE
INDEX 01 00:00:00
TRACK 03 AUDIO
TITLE "The Occupy Blues"
PERFORMER "Giuseppi Logan"
INDEX 00 05:41:47
FILE "03 - The Occupy Blues.wav" WAVE
INDEX 01 00:00:00
TRACK 04 AUDIO
TITLE "Satin Doll"
PERFORMER "Giuseppi Logan"
INDEX 00 06:30:39
FILE "04 - Satin Doll.wav" WAVE
INDEX 01 00:00:00
TRACK 05 AUDIO
TITLE "Improv 2"
PERFORMER "Giuseppi Logan"
INDEX 00 05:10:40
FILE "05 - Improv 2.wav" WAVE
INDEX 01 00:00:00
TRACK 06 AUDIO
TITLE "Sweet Georgia Brown"
PERFORMER "Giuseppi Logan"
INDEX 00 07:26:51
FILE "06 - Sweet Georgia Brown.wav" WAVE
INDEX 01 00:00:00
 
.accurip
[CUETools log; Date: 30/10/13 11:00:21; Version: 2.1.4]
[CTDB TOCID: AjH02tzGauq_MIovJm13f.qp9.I-] found.
Track | CTDB Status
1 | (1/1) Accurately ripped
2 | (1/1) Accurately ripped
3 | (1/1) Accurately ripped
4 | (1/1) Accurately ripped
5 | (1/1) Accurately ripped
6 | (1/1) Accurately ripped
[AccurateRip ID: 000a271a-00368988-4a0b0606] disk not present in database.
Track Peak [ CRC32 ] [W/O NULL] [ LOG ]
-- 87.6 [F962472E] [580FC73F]
01 87.6 [CD26BBAA] [00BF6A33] CRC32
02 87.4 [FEC2F073] [020ED3DF] CRC32
03 87.2 [875F51B3] [E02FB9F8] CRC32
04 86.1 [19148644] [732C7B9C] CRC32
05 87.1 [B1E52B4A] [A89A89B5] CRC32
06 87.3 [C782A291] [FB2A932D] CRC32

другие релизы
По всем вопросам пишите личное сообщение пользователю M0p94ok.
19:41
179
Нет комментариев. Ваш будет первым!