Поиск

(Avant-Garde, Delmark Records) Ernest Dawkins' New Horizons Ensemble - Jo'burg Jump - 2000, FLAC (tracks+.cue), lossless

(Avant-Garde, Delmark Records) Ernest Dawkins' New Horizons Ensemble - Jo'burg Jump - 2000, FLAC (tracks+.cue), lossless
Треклист:
Ernest Dawkins' New Horizons Ensemble / Jo’burg Jump
Жанр: Avant-Garde, Delmark Records
Страна-производитель диска: U.S.A.
Год издания: 2000
Издатель (лейбл): Delmark Records
Номер по каталогу: DE-524
Аудиокодек: FLAC (*.flac)
Тип рипа: tracks+.cue
Битрейт аудио: lossless
Продолжительность: 1:04:09
Источник (релизер): я
Наличие сканов в содержимом раздачи: да
Треклист:
1. Stranger 7:48
2. Jo’burg Jump 10:02
3. The Gist of It 11:54
4. Shorter Suite 10:58
5. Goldinger 8:27
6. Turtle Island Dance 5:06
7. Transcension 9:54
All compositions by Ernest Dawkins except « Shorter Suite » by Steve Berry.
Recorded at Riverside Studio, Chicago, June 7 & 8, 2000.
Ernest Khabeer Dawkins – Tenor and Alto Sax, Percussion
Ameen Muhammad – Trumpet, Conch Shell, Percussion
Steve Berry – Trombone, Percussion
Yosef Ben Israel – Bass
Avreeayl Ra – Drums, Percussion
Jeff Parker – Guitar on « Shorter Suite »
 
Лог создания рипа
Exact Audio Copy V1.0 beta 3 from 29. August 2011
EAC extraction logfile from 28. October 2013, 18:45
Ernest Dawkins' New Horizons Ensemble / Jo'burg Jump
Used drive : SlimtypeeNAU508 5 Adapter: 1 ID: 0
Read mode : Secure
Utilize accurate stream : Yes
Defeat audio cache : Yes
Make use of C2 pointers : No
Read offset correction : 6
Overread into Lead-In and Lead-Out : No
Fill up missing offset samples with silence : Yes
Delete leading and trailing silent blocks : No
Null samples used in CRC calculations : Yes
Used interface : Native Win32 interface for Win NT & 2000
Gap handling : Appended to previous track
Used output format : User Defined Encoder
Selected bitrate : 768 kBit/s
Quality : High
Add ID3 tag : No
Command line compressor : C:\Program Files (x86)\Exact Audio Copy\Flac\flac.exe
Additional command line options : -8 -V -T "ARTIST=%artist%" -T "TITLE=%title%" -T "ALBUM=%albumtitle%" -T "DATE=%year%" -T "TRACKNUMBER=%tracknr%" -T "GENRE=%genre%" -T "PERFORMER=%albuminterpret%" -T "COMPOSER=%composer%" %haslyrics%--tag-from-file=LYRICS="%lyricsfile%"%haslyrics% -T "ALBUMARTIST=%albumartist%" -T "DISCNUMBER=%cdnumber%" -T "TOTALDISCS=%totalcds%" -T "TOTALTRACKS=%numtracks%" -T "COMMENT=%comment%" %source% -o %dest%
TOC of the extracted CD
Track | Start | Length | Start sector | End sector
---------------------------------------------------------
1 | 0:00.00 | 7:48.27 | 0 | 35126
2 | 7:48.27 | 10:02.08 | 35127 | 80284
3 | 17:50.35 | 11:54.07 | 80285 | 133841
4 | 29:44.42 | 10:58.10 | 133842 | 183201
5 | 40:42.52 | 8:26.50 | 183202 | 221201
6 | 49:09.27 | 5:06.03 | 221202 | 244154
7 | 54:15.30 | 9:54.05 | 244155 | 288709
Track 1
Filename C:\EAC rips\01 - Stranger.wav
Pre-gap length 0:00:02.00
Peak level 100.0 %
Extraction speed 2.3 X
Track quality 100.0 %
Test CRC D358D1FA
Copy CRC D358D1FA
Track not present in AccurateRip database
Copy OK
Track 2
Filename C:\EAC rips\02 - Jo'burg Jump.wav
Pre-gap length 0:00:03.52
Peak level 100.0 %
Extraction speed 2.9 X
Track quality 100.0 %
Test CRC 0AFD714E
Copy CRC 0AFD714E
Track not present in AccurateRip database
Copy OK
Track 3
Filename C:\EAC rips\03 - The Gist of It.wav
Pre-gap length 0:00:03.05
Peak level 99.9 %
Extraction speed 3.2 X
Track quality 99.9 %
Test CRC 0400BFA3
Copy CRC 0400BFA3
Track not present in AccurateRip database
Copy OK
Track 4
Filename C:\EAC rips\04 - Shorter Suite.wav
Pre-gap length 0:00:03.62
Peak level 100.0 %
Extraction speed 3.7 X
Track quality 100.0 %
Test CRC AA195AF2
Copy CRC AA195AF2
Track not present in AccurateRip database
Copy OK
Track 5
Filename C:\EAC rips\05 - Goldinger.wav
Pre-gap length 0:00:03.07
Peak level 100.0 %
Extraction speed 4.1 X
Track quality 100.0 %
Test CRC EBE2DA81
Copy CRC EBE2DA81
Track not present in AccurateRip database
Copy OK
Track 6
Filename C:\EAC rips\06 - Turtle Island Dance.wav
Pre-gap length 0:00:02.57
Peak level 100.0 %
Extraction speed 4.2 X
Track quality 100.0 %
Test CRC D00EEE9F
Copy CRC D00EEE9F
Track not present in AccurateRip database
Copy OK
Track 7
Filename C:\EAC rips\07 - Transcension.wav
Pre-gap length 0:00:03.00
Peak level 100.0 %
Extraction speed 4.6 X
Track quality 100.0 %
Test CRC 2277B252
Copy CRC 2277B252
Track not present in AccurateRip database
Copy OK
None of the tracks are present in the AccurateRip database
No errors occurred
End of status report
---- CUETools DB Plugin V2.1.4
[CTDB TOCID: T.JZFhzRIIO97A0MJdEJFRfTnzs-] disk not present in database
Submit result: T.JZFhzRIIO97A0MJdEJFRfTnzs- has been uploaded
==== Log checksum 8134BCFC206C3598B443D24AD12BD3C67B5516FD15C830E2BF30C0CBACEB9A77 ====
 
Содержание индексной карты (.CUE)
REM GENRE Jazz
REM DATE 2000
REM DISCID 5D0F0907
REM COMMENT "ExactAudioCopy v1.0b3"
PERFORMER "Ernest Dawkins' New Horizons Ensemble"
TITLE "Jo'burg Jump"
FILE "01 - Stranger.wav" WAVE
TRACK 01 AUDIO
TITLE "Stranger"
PERFORMER "Ernest Dawkins' New Horizons Ensemble"
INDEX 01 00:00:00
TRACK 02 AUDIO
TITLE "Jo'burg Jump"
PERFORMER "Ernest Dawkins' New Horizons Ensemble"
INDEX 00 07:44:50
FILE "02 - Jo'burg Jump.wav" WAVE
INDEX 01 00:00:00
TRACK 03 AUDIO
TITLE "The Gist of It"
PERFORMER "Ernest Dawkins' New Horizons Ensemble"
INDEX 00 09:59:03
FILE "03 - The Gist of It.wav" WAVE
INDEX 01 00:00:00
TRACK 04 AUDIO
TITLE "Shorter Suite"
PERFORMER "Ernest Dawkins' New Horizons Ensemble"
INDEX 00 11:50:20
FILE "04 - Shorter Suite.wav" WAVE
INDEX 01 00:00:00
TRACK 05 AUDIO
TITLE "Goldinger"
PERFORMER "Ernest Dawkins' New Horizons Ensemble"
INDEX 00 10:55:03
FILE "05 - Goldinger.wav" WAVE
INDEX 01 00:00:00
TRACK 06 AUDIO
TITLE "Turtle Island Dance"
PERFORMER "Ernest Dawkins' New Horizons Ensemble"
INDEX 00 08:23:68
FILE "06 - Turtle Island Dance.wav" WAVE
INDEX 01 00:00:00
TRACK 07 AUDIO
TITLE "Transcension"
PERFORMER "Ernest Dawkins' New Horizons Ensemble"
INDEX 00 05:03:03
FILE "07 - Transcension.wav" WAVE
INDEX 01 00:00:00
По всем вопросам пишите личное сообщение пользователю M0p94ok.
19:41
184
Нет комментариев. Ваш будет первым!