Вы используете незарегистрированную версию компонента "Вкладки"!

Поиск

(Free Improvisation, Plainisphare) Maurice Magnoni (with Claude Tabarini, Olivier Magnenat, Jacques Demierre) - Duets - 1993, FLAC (tracks+.cue), lossless

(Free Improvisation, Plainisphare) Maurice Magnoni (with Claude Tabarini, Olivier Magnenat, Jacques Demierre) - Duets - 1993, FLAC (tracks+.cue), lossless
Треклист:
Maurice Magnoni / Duets
Жанр: Free Improvisation, Plainisphare
Страна-производитель диска: Switzerland
Год издания: 1993
Издатель (лейбл): Plainisphare
Номер по каталогу: PL 1267-90 CD
Аудиокодек: FLAC (*.flac)
Тип рипа: tracks+.cue
Битрейт аудио: lossless
Продолжительность: 54:26
Источник (релизер): я
Наличие сканов в содержимом раздачи: нет
Треклист:
01. Savane 2:53
02. Blême* 6:14
03. Carafi** 4:56
04. Forward & Backwards* 4:20
05. Toujours** 5:52
06. M.G.M. 6:56
07. Loeche Life* 6:25
08. Mouvements** 8:19
09. Haiku 3:51
10. L’Aiksoni 4:38
Recorded R.T.S.R. Studio 5 & 11.
Maurice Magnoni – Baritone, Tenor, Alto, Soprano, Sopranino Saxophones, Bass Clarinet & Flute
Claude Tabarini – Drums, Percussions & Voice
Olivier Magnenat* – Double Bass
Jacques Demierre** – Piano
 
Лог создания рипа
Exact Audio Copy V1.0 beta 3 from 29. August 2011
EAC extraction logfile from 20. October 2013, 17:39
Maurice Magnoni / Duets
Used drive : SlimtypeeNAU508 5 Adapter: 1 ID: 0
Read mode : Secure
Utilize accurate stream : Yes
Defeat audio cache : Yes
Make use of C2 pointers : No
Read offset correction : 6
Overread into Lead-In and Lead-Out : No
Fill up missing offset samples with silence : Yes
Delete leading and trailing silent blocks : No
Null samples used in CRC calculations : Yes
Used interface : Native Win32 interface for Win NT & 2000
Gap handling : Appended to previous track
Used output format : User Defined Encoder
Selected bitrate : 768 kBit/s
Quality : High
Add ID3 tag : No
Command line compressor : C:\Program Files (x86)\Exact Audio Copy\Flac\flac.exe
Additional command line options : -8 -V -T "ARTIST=%artist%" -T "TITLE=%title%" -T "ALBUM=%albumtitle%" -T "DATE=%year%" -T "TRACKNUMBER=%tracknr%" -T "GENRE=%genre%" -T "PERFORMER=%albuminterpret%" -T "COMPOSER=%composer%" %haslyrics%--tag-from-file=LYRICS="%lyricsfile%"%haslyrics% -T "ALBUMARTIST=%albumartist%" -T "DISCNUMBER=%cdnumber%" -T "TOTALDISCS=%totalcds%" -T "TOTALTRACKS=%numtracks%" -T "COMMENT=%comment%" %source% -o %dest%
TOC of the extracted CD
Track | Start | Length | Start sector | End sector
---------------------------------------------------------
1 | 0:00.00 | 2:52.60 | 0 | 12959
2 | 2:52.60 | 6:14.30 | 12960 | 41039
3 | 9:07.15 | 4:55.55 | 41040 | 63219
4 | 14:02.70 | 4:20.12 | 63220 | 82731
5 | 18:23.07 | 5:52.35 | 82732 | 109166
6 | 24:15.42 | 6:56.33 | 109167 | 140399
7 | 31:12.00 | 6:25.10 | 140400 | 169284
8 | 37:37.10 | 8:19.37 | 169285 | 206746
9 | 45:56.47 | 3:50.58 | 206747 | 224054
10 | 49:47.30 | 4:38.20 | 224055 | 244924
Track 1
Filename C:\EAC rips\01 - Savane.wav
Pre-gap length 0:00:02.00
Peak level 42.8 %
Extraction speed 1.0 X
Track quality 100.0 %
Test CRC 6CA97577
Copy CRC 6CA97577
Track not present in AccurateRip database
Copy OK
Track 2
Filename C:\EAC rips\02 - Blême.wav
Pre-gap length 0:00:01.23
Peak level 86.3 %
Extraction speed 1.2 X
Track quality 100.0 %
Test CRC A40ADD29
Copy CRC A40ADD29
Track not present in AccurateRip database
Copy OK
Track 3
Filename C:\EAC rips\03 - Carafi.wav
Pre-gap length 0:00:01.23
Peak level 69.9 %
Extraction speed 1.3 X
Track quality 100.0 %
Test CRC B10CBFB2
Copy CRC B10CBFB2
Track not present in AccurateRip database
Copy OK
Track 4
Filename C:\EAC rips\04 - Forward & Backwards.wav
Pre-gap length 0:00:00.48
Peak level 54.0 %
Extraction speed 1.4 X
Track quality 100.0 %
Test CRC 8AD08C0E
Copy CRC 8AD08C0E
Track not present in AccurateRip database
Copy OK
Track 5
Filename C:\EAC rips\05 - Toujours.wav
Pre-gap length 0:00:01.47
Peak level 93.2 %
Extraction speed 1.6 X
Track quality 100.0 %
Test CRC 94106807
Copy CRC 94106807
Track not present in AccurateRip database
Copy OK
Track 6
Filename C:\EAC rips\06 - M.G.M..wav
Pre-gap length 0:00:00.47
Peak level 64.2 %
Extraction speed 1.8 X
Track quality 100.0 %
Test CRC 04712796
Copy CRC 04712796
Track not present in AccurateRip database
Copy OK
Track 7
Filename C:\EAC rips\07 - Loeche Life.wav
Pre-gap length 0:00:01.63
Peak level 60.7 %
Extraction speed 1.7 X
Track quality 99.9 %
Test CRC 321C00AD
Copy CRC 321C00AD
Track not present in AccurateRip database
Copy OK
Track 8
Filename C:\EAC rips\08 - Mouvements.wav
Pre-gap length 0:00:02.13
Peak level 90.5 %
Extraction speed 1.9 X
Track quality 99.9 %
Test CRC 1349198C
Copy CRC 1349198C
Track not present in AccurateRip database
Copy OK
Track 9
Filename C:\EAC rips\09 - Haiku.wav
Pre-gap length 0:00:01.25
Peak level 58.4 %
Extraction speed 2.0 X
Track quality 100.0 %
Test CRC D96A42F4
Copy CRC D96A42F4
Track not present in AccurateRip database
Copy OK
Track 10
Filename C:\EAC rips\10 - L'Aiksoni.wav
Pre-gap length 0:00:01.43
Peak level 57.8 %
Extraction speed 2.1 X
Track quality 100.0 %
Test CRC 2D33AF4C
Copy CRC 2D33AF4C
Track not present in AccurateRip database
Copy OK
None of the tracks are present in the AccurateRip database
No errors occurred
End of status report
---- CUETools DB Plugin V2.1.4
[CTDB TOCID: Q6X6Q84jF2uEWeJXnBT_0xNAu3c-] disk not present in database
Submit result: La demande a été abandonnée : La demande a été annulée.
==== Log checksum 9DFD6A3D374EFF0C28419DCA130EE9BBB2CCB661E25E05A622D8E362C5E08177 ====
 
Содержание индексной карты (.CUE)
REM GENRE Jazz
REM DATE 1993
REM DISCID A00CC10A
REM COMMENT "ExactAudioCopy v1.0b3"
PERFORMER "Maurice Magnoni"
TITLE "Duets"
FILE "01 - Savane.wav" WAVE
TRACK 01 AUDIO
TITLE "Savane"
PERFORMER "Maurice Magnoni"
INDEX 01 00:00:00
TRACK 02 AUDIO
TITLE "Blême"
PERFORMER "Maurice Magnoni"
INDEX 00 02:51:37
FILE "02 - Blême.wav" WAVE
INDEX 01 00:00:00
TRACK 03 AUDIO
TITLE "Carafi"
PERFORMER "Maurice Magnoni"
INDEX 00 06:13:07
FILE "03 - Carafi.wav" WAVE
INDEX 01 00:00:00
TRACK 04 AUDIO
TITLE "Forward & Backwards"
PERFORMER "Maurice Magnoni"
INDEX 00 04:55:07
FILE "04 - Forward & Backwards.wav" WAVE
INDEX 01 00:00:00
TRACK 05 AUDIO
TITLE "Toujours"
PERFORMER "Maurice Magnoni"
INDEX 00 04:18:40
FILE "05 - Toujours.wav" WAVE
INDEX 01 00:00:00
TRACK 06 AUDIO
TITLE "M.G.M."
PERFORMER "Maurice Magnoni"
INDEX 00 05:51:63
FILE "06 - M.G.M..wav" WAVE
INDEX 01 00:00:00
TRACK 07 AUDIO
TITLE "Loeche Life"
PERFORMER "Maurice Magnoni"
INDEX 00 06:54:45
FILE "07 - Loeche Life.wav" WAVE
INDEX 01 00:00:00
TRACK 08 AUDIO
TITLE "Mouvements"
PERFORMER "Maurice Magnoni"
INDEX 00 06:22:72
FILE "08 - Mouvements.wav" WAVE
INDEX 01 00:00:00
TRACK 09 AUDIO
TITLE "Haiku"
PERFORMER "Maurice Magnoni"
INDEX 00 08:18:12
FILE "09 - Haiku.wav" WAVE
INDEX 01 00:00:00
TRACK 10 AUDIO
TITLE "L'Aiksoni"
PERFORMER "Maurice Magnoni"
INDEX 00 03:49:15
FILE "10 - L'Aiksoni.wav" WAVE
INDEX 01 00:00:00
Any questions -> support@pro-jazz.com. По всем вопросам пишите -> support@pro-jazz.com
19:42
183
Нет комментариев. Ваш будет первым!