Вы используете незарегистрированную версию компонента "Вкладки"!

Поиск

(Free Jazz, Contemporary Jazz) Enrico Fazio Critical Mass - Shibui - 2013, FLAC (image+.cue), lossless

(Free Jazz, Contemporary Jazz) Enrico Fazio Critical Mass - Shibui - 2013, FLAC (image+.cue), lossless
Треклист:
Enrico Fazio Critical Mass / Shibui
Жанр: Free Jazz, Contemporary Jazz
Страна-производитель диска: UK
Год издания: 2013
Издатель (лейбл): Leo Records
Номер по каталогу: CD LR 678
Аудиокодек: FLAC (*.flac)
Тип рипа: image+.cue
Битрейт аудио: lossless
Продолжительность: 58:26
Источник (релизер): cd
Наличие сканов в содержимом раздачи: нет
Треклист:
1. Tempus Fugit
2. Effetti Collaterali
3. Pianoless
4. Tuttecose
5. Shibui
6. Serial Player
7. Serendipity
8. N.O. Tap
 
Лог создания рипа
Exact Audio Copy V1.0 beta 2 from 29. April 2011
EAC extraction logfile from 31. October 2013, 13:42
Enrico Fazio Critical Mass / Shibui
Used drive : Optiarc DVD RW AD-7170A Adapter: 0 ID: 0
Read mode : Secure
Utilize accurate stream : Yes
Defeat audio cache : Yes
Make use of C2 pointers : No
Read offset correction : 48
Overread into Lead-In and Lead-Out : No
Fill up missing offset samples with silence : Yes
Delete leading and trailing silent blocks : No
Null samples used in CRC calculations : Yes
Used interface : Native Win32 interface for Win NT & 2000
Used output format : User Defined Encoder
Selected bitrate : 320 kBit/s
Quality : High
Add ID3 tag : No
Command line compressor : C:\Program Files\Exact Audio Copy\Flac\flac.exe
Additional command line options : -V -8 -T "Date=%year%" -T "Genre=%genre%" %source%
TOC of the extracted CD
Track | Start | Length | Start sector | End sector
---------------------------------------------------------
1 | 0:00.00 | 8:04.02 | 0 | 36301
2 | 8:04.02 | 6:10.57 | 36302 | 64108
3 | 14:14.59 | 9:02.01 | 64109 | 104759
4 | 23:16.60 | 5:06.39 | 104760 | 127748
5 | 28:23.24 | 10:15.00 | 127749 | 173873
6 | 38:38.24 | 7:18.44 | 173874 | 206767
7 | 45:56.68 | 8:22.71 | 206768 | 244488
8 | 54:19.64 | 4:06.38 | 244489 | 262976
Range status and errors
Selected range
Filename K:\ЕАС\Enrico Fazio Critical Mass - Shibui.wav
Peak level 98.8 %
Extraction speed 2.0 X
Range quality 100.0 %
Test CRC BC4B292F
Copy CRC BC4B292F
Copy OK
No errors occurred
AccurateRip summary
Track 1 not present in database
Track 2 not present in database
Track 3 not present in database
Track 4 not present in database
Track 5 not present in database
Track 6 not present in database
Track 7 not present in database
Track 8 not present in database
None of the tracks are present in the AccurateRip database
End of status report
==== Log checksum 6120F7AB3D6A162FF9B96B1B6EEA681D5A818261088C5ADFA89E0079E770B2CA ====
 
Содержание индексной карты (.CUE)
REM GENRE Jazz
REM DATE 2013
REM DISCID 720DB208
REM COMMENT "ExactAudioCopy v1.0b2"
PERFORMER "Enrico Fazio Critical Mass"
TITLE "Shibui"
FILE "Enrico Fazio Critical Mass - Shibui.flac" WAVE
TRACK 01 AUDIO
TITLE "Tempus Fugit"
PERFORMER "Enrico Fazio Critical Mass"
ISRC 000000000000
INDEX 01 00:00:00
TRACK 02 AUDIO
TITLE "Effetti Collaterali"
PERFORMER "Enrico Fazio Critical Mass"
ISRC 000000000000
INDEX 00 08:02:02
INDEX 01 08:04:02
TRACK 03 AUDIO
TITLE "Pianoless"
PERFORMER "Enrico Fazio Critical Mass"
ISRC 000000000000
INDEX 00 14:12:59
INDEX 01 14:14:59
TRACK 04 AUDIO
TITLE "Tuttecose"
PERFORMER "Enrico Fazio Critical Mass"
ISRC 000000000000
INDEX 00 23:14:60
INDEX 01 23:16:60
TRACK 05 AUDIO
TITLE "Shibui"
PERFORMER "Enrico Fazio Critical Mass"
ISRC 000000000000
INDEX 00 28:21:24
INDEX 01 28:23:24
TRACK 06 AUDIO
TITLE "Serial Player"
PERFORMER "Enrico Fazio Critical Mass"
ISRC 000000000000
INDEX 00 38:36:24
INDEX 01 38:38:24
TRACK 07 AUDIO
TITLE "Serendipity"
PERFORMER "Enrico Fazio Critical Mass"
ISRC 000000000000
INDEX 00 45:54:68
INDEX 01 45:56:68
TRACK 08 AUDIO
TITLE "N.O. Tap"
PERFORMER "Enrico Fazio Critical Mass"
ISRC 000000000000
INDEX 00 54:17:64
INDEX 01 54:19:64
Доп. информация: Recorded June 2-3 and September 22, 2012 at (52+1) Studio, Agliano Terme (AT) Italy
 
Об альбоме (сборнике)
Tempus Fugit is a remake of one of my compositions written in the ‘80s, based on a Kurt Weill’s shred (main solos: violin, trumpet, tenor sax).
Effetti Collaterali originates from a bass riff, ending with an extrapolated rhythmic cell by the rock band Colosseum over the riff, with a collective improvisation (main solos: trombone, bass clarinet).
Pianoless starts with a Turkish clarinet solo, while the bass plays mainly in double notes (main solos: Turkish clarinet, violin, alto sax).
Tuttecose comes from a joke of my 4-year-old son, singing into a baby musicbox (main solos: clarinet, trumpet).
Shibui is based on harmonic side-slipping (main solos: tenor sax, contrabass clarinet, violin, drums, trombone, alto sax).
Serial Player is written in twelve-tone technique and the solos stem from the four main series (main solos: baritone sax, collective solos).
Serendipity, according to the title, has two different moods linked by a rhythm pattern (main solos: flute, trumpet, alto sax, trombone, violin).
N.O. Tap is a funny ending, a mixture of side-slipping, tip tap, swing and collective improvisation à la New Orleans.
 
Состав
Luca Campioni – violin
Alberto Mandarini – trumpet, flugelhorn
Gianpiero Malfatto – trombone, euphonium, flute
Adalberto Ferrari – clarinet bass, contrabass & turkish clarinets
Francesco Aroni Vigone – soprano & alto saxes
Gianni Virone – tenor & baritone saxes, lead flute
Enrico Fazio – composition, double bass, balafon
Fiorenzo Sordini – drums, percussion
Any questions -> support@pro-jazz.com. По всем вопросам пишите -> support@pro-jazz.com
19:43
161
Нет комментариев. Ваш будет первым!