Вы используете незарегистрированную версию компонента "Вкладки"!

Поиск

(Free Jazz, Fusion) Henry Threadgill (Air, New Air, Very Very Circus, Flute Force Four) - The Complete Remastered Recordings on Black Saint & Soul Note (7CD) - 2010, FLAC (tracks+.cue) lossless

(Free Jazz, Fusion) Henry Threadgill (Air, New Air, Very Very Circus, Flute Force Four) - The Complete Remastered Recordings on Black Saint & Soul Note (7CD) - 2010, FLAC (tracks+.cue) lossless
Издатель (лейбл):
Треклист:
Henry Threadgill / The Complete Remastered Recordings on Black Saint & Soul Note (7CD)
Жанр: Free Jazz, Fusion
Страна-производитель диска: Италия
Год издания диска: 2010
Издатель (лейбл): Cam Jazz
Номер по каталогу: BXS 1003
Страна: США
Аудио кодек: FLAC (*.flac)
Тип рипа: tracks+.cue
Битрейт аудио: lossless
Продолжительность: 5:16:14
Источник (релизер): вот.сиди (motormuijs)
Наличие сканов в содержимом раздачи: нет
 
LIVE AIR 1977
1 EULOGY FOR CHARLES CLARKE 13:06
2 PORTRAIT OF LEO SMITH 7:58
3 KEEP RIGHT ON PLAYING THRU THE MIRROR OVER THE WATER 15:36
4 BE EVER OUT 5:47
with Fred Hopkins and Steve McCall
 
AIR MAIL 1980
1 B.K. 8:56
2 R.B. 8:22
3 C.T., J.L. 18:26
with Fred Hopkins and Steve McCall
 
NEW AIR - LIVE AT MONTREAL INTERNATIONAL JAZZ FESTIVAL 1983
1 SIR SIMPLETON 11:10
2 DIFDA DANCE 13:09
3 ROLL ON 5:04
4 TRAGEDY ON A THURSDAY AFTERNOON 8:39
5 NO. 1 9:30
with Fred Hopkins, Pheeroan akLaff
 
NEW AIR, CASSANDRA WILSON - AIR SHOW NO. 1 1986
1 ACHTUD EL BUOD (CHILDREN'S SONG) 6:32
2 DON'T DRINK THAT CORNER MY LIFE IS IN THE BUSH 9:16
3 AIR SHOW 5:22
4 APRICOTS ON THEIR WINGS 6:07
5 SALUTE TO THE ENEMA BANDIT 7:25
6 SIDE STEP 7:07
with Fred Hopkins, Pheeroan akLaff & Cassandra Wilson
 
HENRY THREADGILL VERY VERY CIRCUS - SPIRIT OF NUFF...NUFF 1990
1 HOPE A HOPE A 7:39
2 UNREALISTIC LOVE 10:39
3 DRIVIN' YOU SLOW AND CRAZY 10:29
4 BEE DEE AFF 9:28
5 FIRST CHURCH OF THIS 8:04
6 EXACTO 5:02
7 IN THE RING 6:46
with Curtis Fowlkes, Brandon Ross, Masujaa, Edwin Rodriguez, Marcus Rojas, Gene Lake
 
HENRY THREADGILL - SONG OUT OF MY TREES 1993
1 GATEWAY 9:22
2 OVER THE RIVER CLUB 9:24
3 GRIEF 10:11
4 CREA 8:46
5 SONG OUT OF MY TREES 8:14
with Ted Daniel, Jerome Harris, James Emery, Ed Cherry, Myra Melford, Tony Cedrus, Amina Claudia Myers, Diedre Murray, Michelle Kinney, Mossa Bildner, Ted Daniel, Reggie Nicholson
 
FLUTE FORCE FOUR - FLUTISTRY 1990
1 T.B.A. 5:39
2 INTERSECTION 6:53
3 LUAP NOSEBOR 9:04
4 HYMN TO WRIGHT REVEREND 6:45
5 PASEO DEL MAR 5:56
6 FIGWIG 9:55
with James Newton, Pedro Eustache, Melecio Magdaluyo

 
Лог создания рипа
 
LIVE AIR
Exact Audio Copy V0.99 prebeta 5 from 4. May 2009
EAC extraction logfile from 30. January 2011, 19:21
Air / Live
Used drive : ASUS DRW-2014S1 Adapter: 0 ID: 1
Read mode : Secure
Utilize accurate stream : Yes
Defeat audio cache : Yes
Make use of C2 pointers : No
Read offset correction : 6
Overread into Lead-In and Lead-Out : No
Fill up missing offset samples with silence : Yes
Delete leading and trailing silent blocks : No
Null samples used in CRC calculations : Yes
Used interface : Installed external ASPI interface
Gap handling : Appended to previous track
Used output format : User Defined Encoder
Selected bitrate : 320 kBit/s
Quality : High
Add ID3 tag : No
Command line compressor : C:\Program Files\Exact Audio Copy\flac.exe
Additional command line options : -8 -V -T "artist=%a" -T "title=%t" -T "album=%g" -T "date=%y" -T "tracknumber=%n" -T "genre=%m" -T "comment=High Quality, EAC secure, Lossless flac " %s
TOC of the extracted CD
Track | Start | Length | Start sector | End sector
---------------------------------------------------------
1 | 0:00.00 | 13:06.05 | 0 | 58954
2 | 13:06.05 | 7:58.19 | 58955 | 94823
3 | 21:04.24 | 15:36.74 | 94824 | 165097
4 | 36:41.23 | 5:47.31 | 165098 | 191153
Track 1
Filename F:\whatcd\a\Air - 1980 - Live\01 - Eulogy For Charles Clarke.wav
Pre-gap length 0:00:02.00
Peak level 99.5 %
Track quality 100.0 %
Test CRC 456CB1C4
Copy CRC 456CB1C4
Accurately ripped (confidence 2) [FBEEBBDB]
Copy OK
Track 2
Filename F:\whatcd\a\Air - 1980 - Live\02 - Portrait Of Leo Smith.wav
Pre-gap length 0:00:01.44
Peak level 87.7 %
Track quality 100.0 %
Test CRC 3FB2B7CC
Copy CRC 3FB2B7CC
Accurately ripped (confidence 2) [4BAE2E4B]
Copy OK
Track 3
Filename F:\whatcd\a\Air - 1980 - Live\03 - Keep Right On Playing Thru The Mirror Over The Water.wav
Pre-gap length 0:00:03.85
Peak level 100.0 %
Track quality 100.0 %
Test CRC 271A4218
Copy CRC 271A4218
Accurately ripped (confidence 2) [DDF78EFC]
Copy OK
Track 4
Filename F:\whatcd\a\Air - 1980 - Live\04 - Be Ever Out.wav
Peak level 100.0 %
Track quality 100.0 %
Test CRC A5B541DA
Copy CRC A5B541DA
Accurately ripped (confidence 2) [0CA4DEB2]
Copy OK
All tracks accurately ripped
No errors occurred
End of status report
 
AIR MAIL
Exact Audio Copy V0.99 prebeta 5 from 4. May 2009
EAC extraction logfile from 30. January 2011, 15:55
Air / Air Mail
Used drive : ASUS DRW-2014S1 Adapter: 0 ID: 1
Read mode : Secure
Utilize accurate stream : Yes
Defeat audio cache : Yes
Make use of C2 pointers : No
Read offset correction : 6
Overread into Lead-In and Lead-Out : No
Fill up missing offset samples with silence : Yes
Delete leading and trailing silent blocks : No
Null samples used in CRC calculations : Yes
Used interface : Installed external ASPI interface
Gap handling : Appended to previous track
Used output format : User Defined Encoder
Selected bitrate : 320 kBit/s
Quality : High
Add ID3 tag : No
Command line compressor : C:\Program Files\Exact Audio Copy\flac.exe
Additional command line options : -8 -V -T "artist=%a" -T "title=%t" -T "album=%g" -T "date=%y" -T "tracknumber=%n" -T "genre=%m" -T "comment=High Quality, EAC secure, Lossless flac " %s
TOC of the extracted CD
Track | Start | Length | Start sector | End sector
---------------------------------------------------------
1 | 0:00.00 | 9:00.36 | 0 | 40535
2 | 9:00.36 | 8:23.46 | 40536 | 78306
3 | 17:24.07 | 18:30.34 | 78307 | 161590
Track 1
Filename F:\whatcd\a\Air - 1981 - Air Mail\01 - B.K..wav
Pre-gap length 0:00:02.00
Peak level 89.0 %
Track quality 100.0 %
Test CRC 0A91B14F
Copy CRC 0A91B14F
Accurately ripped (confidence 2) [B60D6A62]
Copy OK
Track 2
Filename F:\whatcd\a\Air - 1981 - Air Mail\02 - R.B..wav
Pre-gap length 0:00:03.65
Peak level 90.6 %
Track quality 100.0 %
Test CRC 6A132570
Copy CRC 6A132570
Accurately ripped (confidence 2) [EB828992]
Copy OK
Track 3
Filename F:\whatcd\a\Air - 1981 - Air Mail\03 - C.T., J.L..wav
Pre-gap length 0:00:02.34
Peak level 77.6 %
Track quality 100.0 %
Test CRC 7A8B0731
Copy CRC 7A8B0731
Accurately ripped (confidence 2) [1054F7A9]
Copy OK
All tracks accurately ripped
No errors occurred
End of status report
 
NEW AIR - LIVE AT MONTREAL INTERNATIONAL JAZZ FESTIVAL
Exact Audio Copy V0.99 prebeta 5 from 4. May 2009
EAC extraction logfile from 30. January 2011, 16:27
New Air / Live at Montreal International Jazz Festival
Used drive : ASUS DRW-2014S1 Adapter: 0 ID: 1
Read mode : Secure
Utilize accurate stream : Yes
Defeat audio cache : Yes
Make use of C2 pointers : No
Read offset correction : 6
Overread into Lead-In and Lead-Out : No
Fill up missing offset samples with silence : Yes
Delete leading and trailing silent blocks : No
Null samples used in CRC calculations : Yes
Used interface : Installed external ASPI interface
Gap handling : Appended to previous track
Used output format : User Defined Encoder
Selected bitrate : 320 kBit/s
Quality : High
Add ID3 tag : No
Command line compressor : C:\Program Files\Exact Audio Copy\flac.exe
Additional command line options : -8 -V -T "artist=%a" -T "title=%t" -T "album=%g" -T "date=%y" -T "tracknumber=%n" -T "genre=%m" -T "comment=High Quality, EAC secure, Lossless flac " %s
TOC of the extracted CD
Track | Start | Length | Start sector | End sector
---------------------------------------------------------
1 | 0:00.00 | 11:10.43 | 0 | 50292
2 | 11:10.43 | 13:09.25 | 50293 | 109492
3 | 24:19.68 | 5:04.11 | 109493 | 132303
4 | 29:24.04 | 8:39.47 | 132304 | 171275
5 | 38:03.51 | 9:30.20 | 171276 | 214045
Track 1
Filename F:\whatcd\a\New Air - 1983 - Live at Montreal International Jazz Festival\01 - Sir Simpleton.wav
Pre-gap length 0:00:02.00
Peak level 93.2 %
Track quality 100.0 %
Test CRC A4C6D5B6
Copy CRC A4C6D5B6
Accurately ripped (confidence 2) [2399854A]
Copy OK
Track 2
Filename F:\whatcd\a\New Air - 1983 - Live at Montreal International Jazz Festival\02 - Difda dance.wav
Peak level 93.2 %
Track quality 100.0 %
Test CRC DA9A5A07
Copy CRC DA9A5A07
Accurately ripped (confidence 2) [CF69B80B]
Copy OK
Track 3
Filename F:\whatcd\a\New Air - 1983 - Live at Montreal International Jazz Festival\03 - Roll on.wav
Peak level 93.2 %
Track quality 99.9 %
Test CRC 294E6D7B
Copy CRC 294E6D7B
Accurately ripped (confidence 2) [C4F0E9FB]
Copy OK
Track 4
Filename F:\whatcd\a\New Air - 1983 - Live at Montreal International Jazz Festival\04 - Tragedy on a thursday afternoon.wav
Peak level 93.2 %
Track quality 100.0 %
Test CRC 6E952BDC
Copy CRC 6E952BDC
Accurately ripped (confidence 2) [1660E93F]
Copy OK
Track 5
Filename F:\whatcd\a\New Air - 1983 - Live at Montreal International Jazz Festival\05 - No. 1.wav
Peak level 93.2 %
Track quality 100.0 %
Test CRC 2F400FC8
Copy CRC 2F400FC8
Accurately ripped (confidence 2) [6B5E427E]
Copy OK
All tracks accurately ripped
No errors occurred
End of status report
 
NEW AIR, CASSANDRA WILSON - AIR SHOW NO. 1
Exact Audio Copy V0.99 prebeta 5 from 4. May 2009
EAC extraction logfile from 30. January 2011, 17:31
New Air featuring Cassandra Wilson / Air Show No. 1
Used drive : ASUS DRW-2014S1 Adapter: 0 ID: 1
Read mode : Secure
Utilize accurate stream : Yes
Defeat audio cache : Yes
Make use of C2 pointers : No
Read offset correction : 6
Overread into Lead-In and Lead-Out : No
Fill up missing offset samples with silence : Yes
Delete leading and trailing silent blocks : No
Null samples used in CRC calculations : Yes
Used interface : Installed external ASPI interface
Gap handling : Appended to previous track
Used output format : User Defined Encoder
Selected bitrate : 320 kBit/s
Quality : High
Add ID3 tag : No
Command line compressor : C:\Program Files\Exact Audio Copy\flac.exe
Additional command line options : -8 -V -T "artist=%a" -T "title=%t" -T "album=%g" -T "date=%y" -T "tracknumber=%n" -T "genre=%m" -T "comment=High Quality, EAC secure, Lossless flac " %s
TOC of the extracted CD
Track | Start | Length | Start sector | End sector
---------------------------------------------------------
1 | 0:00.00 | 6:32.09 | 0 | 29408
2 | 6:32.09 | 9:16.52 | 29409 | 71160
3 | 15:48.61 | 5:22.41 | 71161 | 95351
4 | 21:11.27 | 6:07.61 | 95352 | 122937
5 | 27:19.13 | 7:25.21 | 122938 | 156333
6 | 34:44.34 | 7:07.23 | 156334 | 188381
Track 1
Filename F:\whatcd\a\New Air featuring Cassandra Wilson - 1986 - Air Show No. 1\01 - Achtud El Buod (Children's Song).wav
Pre-gap length 0:00:02.00
Peak level 95.2 %
Track quality 100.0 %
Test CRC 77A8CF6E
Copy CRC 77A8CF6E
Accurately ripped (confidence 2) [987BED5A]
Copy OK
Track 2
Filename F:\whatcd\a\New Air featuring Cassandra Wilson - 1986 - Air Show No. 1\02 - Don't Drink That Corner My Life Is In The Bush.wav
Peak level 76.4 %
Track quality 100.0 %
Test CRC BF08D1E5
Copy CRC BF08D1E5
Accurately ripped (confidence 2) [D5E38726]
Copy OK
Track 3
Filename F:\whatcd\a\New Air featuring Cassandra Wilson - 1986 - Air Show No. 1\03 - Air Show.wav
Peak level 92.8 %
Track quality 100.0 %
Test CRC 192DE2EA
Copy CRC 192DE2EA
Accurately ripped (confidence 2) [B8030608]
Copy OK
Track 4
Filename F:\whatcd\a\New Air featuring Cassandra Wilson - 1986 - Air Show No. 1\04 - Apricots On Their Wings.wav
Peak level 95.2 %
Track quality 100.0 %
Test CRC 6E8CE07D
Copy CRC 6E8CE07D
Accurately ripped (confidence 2) [14F2755F]
Copy OK
Track 5
Filename F:\whatcd\a\New Air featuring Cassandra Wilson - 1986 - Air Show No. 1\05 - Salute To The Enema Bandit.wav
Peak level 82.6 %
Track quality 99.9 %
Test CRC 5B48A807
Copy CRC 5B48A807
Accurately ripped (confidence 2) [E370547D]
Copy OK
Track 6
Filename F:\whatcd\a\New Air featuring Cassandra Wilson - 1986 - Air Show No. 1\06 - Side Step.wav
Peak level 95.2 %
Track quality 100.0 %
Test CRC B005AFBE
Copy CRC B005AFBE
Accurately ripped (confidence 2) [CA436CBA]
Copy OK
All tracks accurately ripped
No errors occurred
End of status report
 
HENRY THREADGILL VERY VERY CIRCUS - SPIRIT OF NUFF...NUFF
Exact Audio Copy V0.99 prebeta 5 from 4. May 2009
EAC extraction logfile from 30. January 2011, 20:08
Henry Threadgill Very Very Circus / Spirit of Nuff...Nuff
Used drive : ASUS DRW-2014S1 Adapter: 0 ID: 1
Read mode : Secure
Utilize accurate stream : Yes
Defeat audio cache : Yes
Make use of C2 pointers : No
Read offset correction : 6
Overread into Lead-In and Lead-Out : No
Fill up missing offset samples with silence : Yes
Delete leading and trailing silent blocks : No
Null samples used in CRC calculations : Yes
Used interface : Installed external ASPI interface
Gap handling : Appended to previous track
Used output format : User Defined Encoder
Selected bitrate : 320 kBit/s
Quality : High
Add ID3 tag : No
Command line compressor : C:\Program Files\Exact Audio Copy\flac.exe
Additional command line options : -8 -V -T "artist=%a" -T "title=%t" -T "album=%g" -T "date=%y" -T "tracknumber=%n" -T "genre=%m" -T "comment=High Quality, EAC secure, Lossless flac " %s
TOC of the extracted CD
Track | Start | Length | Start sector | End sector
---------------------------------------------------------
1 | 0:00.00 | 7:39.65 | 0 | 34489
2 | 7:39.65 | 10:39.21 | 34490 | 82435
3 | 18:19.11 | 10:29.47 | 82436 | 129657
4 | 28:48.58 | 9:28.11 | 129658 | 172268
5 | 38:16.69 | 8:04.36 | 172269 | 208604
6 | 46:21.30 | 5:02.70 | 208605 | 231324
7 | 51:24.25 | 6:46.18 | 231325 | 261792
Track 1
Filename F:\whatcd\a\Henry Threadgill Very Very Circus - 1990 - Spirit of Nuff...Nuff\01 - Hope A hope A.wav
Pre-gap length 0:00:02.00
Peak level 95.2 %
Track quality 100.0 %
Test CRC 5F0C3EE4
Copy CRC 5F0C3EE4
Accurately ripped (confidence 2) [3FC9B197]
Copy OK
Track 2
Filename F:\whatcd\a\Henry Threadgill Very Very Circus - 1990 - Spirit of Nuff...Nuff\02 - Unrealistic love.wav
Pre-gap length 0:00:03.22
Peak level 95.2 %
Track quality 100.0 %
Test CRC 149235F3
Copy CRC 149235F3
Accurately ripped (confidence 2) [447B2BA5]
Copy OK
Track 3
Filename F:\whatcd\a\Henry Threadgill Very Very Circus - 1990 - Spirit of Nuff...Nuff\03 - Drivin' you slow and crazy.wav
Pre-gap length 0:00:04.80
Peak level 95.2 %
Track quality 100.0 %
Test CRC 407BBBEF
Copy CRC 407BBBEF
Accurately ripped (confidence 2) [BD7CE04E]
Copy OK
Track 4
Filename F:\whatcd\a\Henry Threadgill Very Very Circus - 1990 - Spirit of Nuff...Nuff\04 - Bee Dee Aff.wav
Pre-gap length 0:00:03.60
Peak level 95.2 %
Track quality 99.9 %
Test CRC 9CF0F99A
Copy CRC 9CF0F99A
Accurately ripped (confidence 2) [C820DD45]
Copy OK
Track 5
Filename F:\whatcd\a\Henry Threadgill Very Very Circus - 1990 - Spirit of Nuff...Nuff\05 - First church of this.wav
Pre-gap length 0:00:03.58
Peak level 95.2 %
Track quality 99.9 %
Test CRC 2244DA99
Copy CRC 2244DA99
Accurately ripped (confidence 2) [BCA339C3]
Copy OK
Track 6
Filename F:\whatcd\a\Henry Threadgill Very Very Circus - 1990 - Spirit of Nuff...Nuff\06 - Exacto.wav
Pre-gap length 0:00:03.89
Peak level 95.2 %
Track quality 100.0 %
Test CRC 8993E8E8
Copy CRC 8993E8E8
Accurately ripped (confidence 2) [158BD284]
Copy OK
Track 7
Filename F:\whatcd\a\Henry Threadgill Very Very Circus - 1990 - Spirit of Nuff...Nuff\07 - In the ring.wav
Pre-gap length 0:00:02.88
Peak level 95.2 %
Track quality 100.0 %
Test CRC 6A2675A3
Copy CRC 6A2675A3
Accurately ripped (confidence 2) [F72E5F40]
Copy OK
All tracks accurately ripped
No errors occurred
End of status report
 
HENRY THREADGILL - SONG OUT OF MY TREES
Exact Audio Copy V0.99 prebeta 5 from 4. May 2009
EAC extraction logfile from 30. January 2011, 15:10
Henry Threadgill / Song Out Of My Trees
Used drive : ASUS DRW-2014S1 Adapter: 0 ID: 1
Read mode : Secure
Utilize accurate stream : Yes
Defeat audio cache : Yes
Make use of C2 pointers : No
Read offset correction : 6
Overread into Lead-In and Lead-Out : No
Fill up missing offset samples with silence : Yes
Delete leading and trailing silent blocks : No
Null samples used in CRC calculations : Yes
Used interface : Installed external ASPI interface
Gap handling : Appended to previous track
Used output format : User Defined Encoder
Selected bitrate : 320 kBit/s
Quality : High
Add ID3 tag : No
Command line compressor : C:\Program Files\Exact Audio Copy\flac.exe
Additional command line options : -8 -V -T "artist=%a" -T "title=%t" -T "album=%g" -T "date=%y" -T "tracknumber=%n" -T "genre=%m" -T "comment=High Quality, EAC secure, Lossless flac " %s
TOC of the extracted CD
Track | Start | Length | Start sector | End sector
---------------------------------------------------------
1 | 0:00.00 | 9:22.46 | 0 | 42195
2 | 9:22.46 | 9:24.13 | 42196 | 84508
3 | 18:46.59 | 10:11.18 | 84509 | 130351
4 | 28:58.02 | 8:46.57 | 130352 | 169858
5 | 37:44.59 | 8:14.23 | 169859 | 206931
Track 1
Filename F:\whatcd\a\Henry Threadgill - 1993 - Song Out Of My Trees\01 - Gateway.wav
Pre-gap length 0:00:02.00
Peak level 95.2 %
Track quality 100.0 %
Test CRC BF87821F
Copy CRC BF87821F
Accurately ripped (confidence 2) [5804CEB6]
Copy OK
Track 2
Filename F:\whatcd\a\Henry Threadgill - 1993 - Song Out Of My Trees\02 - Over The River Club.wav
Pre-gap length 0:00:03.57
Peak level 95.2 %
Track quality 99.9 %
Test CRC ECF3C4CB
Copy CRC ECF3C4CB
Accurately ripped (confidence 2) [AD907A89]
Copy OK
Track 3
Filename F:\whatcd\a\Henry Threadgill - 1993 - Song Out Of My Trees\03 - Grief.wav
Pre-gap length 0:00:01.66
Peak level 95.2 %
Track quality 100.0 %
Test CRC 63437306
Copy CRC 63437306
Accurately ripped (confidence 2) [58F93B02]
Copy OK
Track 4
Filename F:\whatcd\a\Henry Threadgill - 1993 - Song Out Of My Trees\04 - Crea.wav
Pre-gap length 0:00:01.56
Peak level 95.2 %
Track quality 100.0 %
Test CRC 74B8CE24
Copy CRC 74B8CE24
Accurately ripped (confidence 2) [50934A20]
Copy OK
Track 5
Filename F:\whatcd\a\Henry Threadgill - 1993 - Song Out Of My Trees\05 - Song Out Of My Trees.wav
Pre-gap length 0:00:02.01
Peak level 95.2 %
Track quality 100.0 %
Test CRC 32BD939B
Copy CRC 32BD939B
Accurately ripped (confidence 2) [903074DE]
Copy OK
All tracks accurately ripped
No errors occurred
End of status report
 
FLUTE FORCE FOUR - FLUTISTRY
Exact Audio Copy V0.99 prebeta 5 from 4. May 2009
EAC extraction logfile from 30. January 2011, 13:32
Flute Force Four [Henry Threadgill, James Newton, Pedro Eustache, Melecio Magdaluyo] / Flutistry
Used drive : ASUS DRW-2014S1 Adapter: 0 ID: 1
Read mode : Secure
Utilize accurate stream : Yes
Defeat audio cache : Yes
Make use of C2 pointers : No
Read offset correction : 6
Overread into Lead-In and Lead-Out : No
Fill up missing offset samples with silence : Yes
Delete leading and trailing silent blocks : No
Null samples used in CRC calculations : Yes
Used interface : Installed external ASPI interface
Gap handling : Appended to previous track
Used output format : User Defined Encoder
Selected bitrate : 320 kBit/s
Quality : High
Add ID3 tag : No
Command line compressor : C:\Program Files\Exact Audio Copy\flac.exe
Additional command line options : -8 -V -T "artist=%a" -T "title=%t" -T "album=%g" -T "date=%y" -T "tracknumber=%n" -T "genre=%m" -T "comment=High Quality, EAC secure, Lossless flac " %s
TOC of the extracted CD
Track | Start | Length | Start sector | End sector
---------------------------------------------------------
1 | 0:00.00 | 5:39.60 | 0 | 25484
2 | 5:39.60 | 6:53.21 | 25485 | 56480
3 | 12:33.06 | 9:04.28 | 56481 | 97308
4 | 21:37.34 | 6:45.52 | 97309 | 127735
5 | 28:23.11 | 5:56.57 | 127736 | 154492
6 | 34:19.68 | 9:55.04 | 154493 | 199121
Track 1
Filename F:\whatcd\a\Flute Force Four [Henry Threadgill, James Newton, Pedro Eustache, Melecio Magdaluyo] - 1990 - Flutistry\01 - T.B.A.wav
Pre-gap length 0:00:02.00
Peak level 95.2 %
Track quality 100.0 %
Test CRC 8A6D43B7
Copy CRC 8A6D43B7
Accurately ripped (confidence 2) [31FA839E]
Copy OK
Track 2
Filename F:\whatcd\a\Flute Force Four [Henry Threadgill, James Newton, Pedro Eustache, Melecio Magdaluyo] - 1990 - Flutistry\02 - Intersection.wav
Pre-gap length 0:00:02.90
Peak level 95.2 %
Track quality 100.0 %
Test CRC 2335139D
Copy CRC 2335139D
Accurately ripped (confidence 2) [4157CFBA]
Copy OK
Track 3
Filename F:\whatcd\a\Flute Force Four [Henry Threadgill, James Newton, Pedro Eustache, Melecio Magdaluyo] - 1990 - Flutistry\03 - Luap Nosebor.wav
Pre-gap length 0:00:01.32
Peak level 95.2 %
Track quality 100.0 %
Test CRC DBC35458
Copy CRC DBC35458
Accurately ripped (confidence 2) [6218F34D]
Copy OK
Track 4
Filename F:\whatcd\a\Flute Force Four [Henry Threadgill, James Newton, Pedro Eustache, Melecio Magdaluyo] - 1990 - Flutistry\04 - Hymn to Wright Reverend.wav
Pre-gap length 0:00:02.10
Peak level 95.2 %
Track quality 100.0 %
Test CRC 92E08B6F
Copy CRC 92E08B6F
Accurately ripped (confidence 2) [9F9CAD4F]
Copy OK
Track 5
Filename F:\whatcd\a\Flute Force Four [Henry Threadgill, James Newton, Pedro Eustache, Melecio Magdaluyo] - 1990 - Flutistry\05 - Paseo Del Mar.wav
Pre-gap length 0:00:02.42
Peak level 95.2 %
Track quality 100.0 %
Test CRC 71EBDC9F
Copy CRC 71EBDC9F
Accurately ripped (confidence 2) [0B25C310]
Copy OK
Track 6
Filename F:\whatcd\a\Flute Force Four [Henry Threadgill, James Newton, Pedro Eustache, Melecio Magdaluyo] - 1990 - Flutistry\06 - Figwig.wav
Pre-gap length 0:00:01.57
Peak level 95.2 %
Track quality 99.9 %
Test CRC F308FB58
Copy CRC F308FB58
Accurately ripped (confidence 2) [893606FF]
Copy OK
All tracks accurately ripped
No errors occurred
End of status report
 
Содержание индексной карты (.CUE)
 
LIVE AIR
REM GENRE Jazz
REM DATE 1980
REM DISCID 2F09F404
REM COMMENT "ExactAudioCopy v0.99pb5"
PERFORMER "Air"
TITLE "Live"
FILE "Air - 1980 - Live\01 - Eulogy For Charles Clarke.wav" WAVE
TRACK 01 AUDIO
TITLE "Eulogy For Charles Clarke"
PERFORMER "Air"
FLAGS DCP
INDEX 01 00:00:00
TRACK 02 AUDIO
TITLE "Portrait Of Leo Smith"
PERFORMER "Air"
FLAGS DCP
INDEX 00 13:04:47
FILE "Air - 1980 - Live\02 - Portrait Of Leo Smith.wav" WAVE
INDEX 01 00:00:00
TRACK 03 AUDIO
TITLE "Keep Right On Playing Thru The Mirror Over The Water"
PERFORMER "Air"
FLAGS DCP
INDEX 00 07:54:30
FILE "Air - 1980 - Live\03 - Keep Right On Playing Thru The Mirror Over The Water.wav" WAVE
INDEX 01 00:00:00
FILE "Air - 1980 - Live\04 - Be Ever Out.wav" WAVE
TRACK 04 AUDIO
TITLE "Be Ever Out"
PERFORMER "Air"
FLAGS DCP
INDEX 01 00:00:00
 
AIR MAIL
REM GENRE Jazz
REM DATE 1981
REM DISCID 18086A03
REM COMMENT "ExactAudioCopy v0.99pb5"
PERFORMER "Air"
TITLE "Air Mail"
FILE "Air - 1981 - Air Mail\01 - B.K..wav" WAVE
TRACK 01 AUDIO
TITLE "B.K."
PERFORMER "Air"
FLAGS DCP
INDEX 01 00:00:00
TRACK 02 AUDIO
TITLE "R.B."
PERFORMER "Air"
FLAGS DCP
INDEX 00 08:56:62
FILE "Air - 1981 - Air Mail\02 - R.B..wav" WAVE
INDEX 01 00:00:00
TRACK 03 AUDIO
TITLE "C.T., J.L."
PERFORMER "Air"
FLAGS DCP
INDEX 00 08:21:20
FILE "Air - 1981 - Air Mail\03 - C.T., J.L..wav" WAVE
INDEX 01 00:00:00
 
NEW AIR - LIVE AT MONTREAL INTERNATIONAL JAZZ FESTIVAL
REM GENRE Jazz
REM DATE 1983
REM DISCID 420B2505
REM COMMENT "ExactAudioCopy v0.99pb5"
PERFORMER "New Air"
TITLE "Live at Montreal International Jazz Festival"
FILE "New Air - 1983 - Live at Montreal International Jazz Festival\01 - Sir Simpleton.wav" WAVE
TRACK 01 AUDIO
TITLE "Sir Simpleton"
PERFORMER "New Air"
FLAGS DCP
INDEX 01 00:00:00
FILE "New Air - 1983 - Live at Montreal International Jazz Festival\02 - Difda dance.wav" WAVE
TRACK 02 AUDIO
TITLE "Difda dance"
PERFORMER "New Air"
FLAGS DCP
INDEX 01 00:00:00
FILE "New Air - 1983 - Live at Montreal International Jazz Festival\03 - Roll on.wav" WAVE
TRACK 03 AUDIO
TITLE "Roll on"
PERFORMER "New Air"
FLAGS DCP
INDEX 01 00:00:00
FILE "New Air - 1983 - Live at Montreal International Jazz Festival\04 - Tragedy on a thursday afternoon.wav" WAVE
TRACK 04 AUDIO
TITLE "Tragedy on a thursday afternoon"
PERFORMER "New Air"
FLAGS DCP
INDEX 01 00:00:00
FILE "New Air - 1983 - Live at Montreal International Jazz Festival\05 - No. 1.wav" WAVE
TRACK 05 AUDIO
TITLE "No. 1"
PERFORMER "New Air"
FLAGS DCP
INDEX 01 00:00:00
 
NEW AIR, CASSANDRA WILSON - AIR SHOW NO. 1
REM GENRE Avantgarde
REM DATE 1986
REM DISCID 4909CF06
REM COMMENT "ExactAudioCopy v0.99pb5"
PERFORMER "New Air featuring Cassandra Wilson"
TITLE "Air Show No. 1"
FILE "New Air featuring Cassandra Wilson - 1986 - Air Show No. 1\01 - Achtud El Buod (Children's Song).wav" WAVE
TRACK 01 AUDIO
TITLE "Achtud El Buod (Children's Song)"
PERFORMER "New Air featuring Cassandra Wilson"
FLAGS DCP
INDEX 01 00:00:00
FILE "New Air featuring Cassandra Wilson - 1986 - Air Show No. 1\02 - Don't Drink That Corner My Life Is In The Bush.wav" WAVE
TRACK 02 AUDIO
TITLE "Don't Drink That Corner My Life Is In The Bush"
PERFORMER "New Air featuring Cassandra Wilson"
FLAGS DCP
INDEX 01 00:00:00
FILE "New Air featuring Cassandra Wilson - 1986 - Air Show No. 1\03 - Air Show.wav" WAVE
TRACK 03 AUDIO
TITLE "Air Show"
PERFORMER "New Air featuring Cassandra Wilson"
FLAGS DCP
INDEX 01 00:00:00
FILE "New Air featuring Cassandra Wilson - 1986 - Air Show No. 1\04 - Apricots On Their Wings.wav" WAVE
TRACK 04 AUDIO
TITLE "Apricots On Their Wings"
PERFORMER "New Air featuring Cassandra Wilson"
FLAGS DCP
INDEX 01 00:00:00
FILE "New Air featuring Cassandra Wilson - 1986 - Air Show No. 1\05 - Salute To The Enema Bandit.wav" WAVE
TRACK 05 AUDIO
TITLE "Salute To The Enema Bandit"
PERFORMER "New Air featuring Cassandra Wilson"
FLAGS DCP
INDEX 01 00:00:00
FILE "New Air featuring Cassandra Wilson - 1986 - Air Show No. 1\06 - Side Step.wav" WAVE
TRACK 06 AUDIO
TITLE "Side Step"
PERFORMER "New Air featuring Cassandra Wilson"
FLAGS DCP
INDEX 01 00:00:00
 
HENRY THREADGILL VERY VERY CIRCUS - SPIRIT OF NUFF...NUFF
REM GENRE "Contemporary Jazz"
REM DATE 1990
REM DISCID 550DA207
REM COMMENT "ExactAudioCopy v0.99pb5"
PERFORMER "Henry Threadgill Very Very Circus"
TITLE "Spirit of Nuff...Nuff"
FILE "Henry Threadgill Very Very Circus - 1990 - Spirit of Nuff...Nuff\01 - Hope A hope A.wav" WAVE
TRACK 01 AUDIO
TITLE "Hope A hope A"
PERFORMER "Henry Threadgill Very Very Circus"
FLAGS DCP
INDEX 01 00:00:00
TRACK 02 AUDIO
TITLE "Unrealistic love"
PERFORMER "Henry Threadgill Very Very Circus"
FLAGS DCP
INDEX 00 07:36:48
FILE "Henry Threadgill Very Very Circus - 1990 - Spirit of Nuff...Nuff\02 - Unrealistic love.wav" WAVE
INDEX 01 00:00:00
TRACK 03 AUDIO
TITLE "Drivin' you slow and crazy"
PERFORMER "Henry Threadgill Very Very Circus"
FLAGS DCP
INDEX 00 10:34:36
FILE "Henry Threadgill Very Very Circus - 1990 - Spirit of Nuff...Nuff\03 - Drivin' you slow and crazy.wav" WAVE
INDEX 01 00:00:00
TRACK 04 AUDIO
TITLE "Bee Dee Aff"
PERFORMER "Henry Threadgill Very Very Circus"
FLAGS DCP
INDEX 00 10:26:02
FILE "Henry Threadgill Very Very Circus - 1990 - Spirit of Nuff...Nuff\04 - Bee Dee Aff.wav" WAVE
INDEX 01 00:00:00
TRACK 05 AUDIO
TITLE "First church of this"
PERFORMER "Henry Threadgill Very Very Circus"
FLAGS DCP
INDEX 00 09:24:42
FILE "Henry Threadgill Very Very Circus - 1990 - Spirit of Nuff...Nuff\05 - First church of this.wav" WAVE
INDEX 01 00:00:00
TRACK 06 AUDIO
TITLE "Exacto"
PERFORMER "Henry Threadgill Very Very Circus"
FLAGS DCP
INDEX 00 08:00:44
FILE "Henry Threadgill Very Very Circus - 1990 - Spirit of Nuff...Nuff\06 - Exacto.wav" WAVE
INDEX 01 00:00:00
TRACK 07 AUDIO
TITLE "In the ring"
PERFORMER "Henry Threadgill Very Very Circus"
FLAGS DCP
INDEX 00 05:00:04
FILE "Henry Threadgill Very Very Circus - 1990 - Spirit of Nuff...Nuff\07 - In the ring.wav" WAVE
INDEX 01 00:00:00
 
HENRY THREADGILL - SONG OUT OF MY TREES
REM GENRE "Contemporary Jazz"
REM DATE 1993
REM DISCID 390AC705
REM COMMENT "ExactAudioCopy v0.99pb5"
PERFORMER "Henry Threadgill"
TITLE "Song Out Of My Trees"
FILE "Henry Threadgill - 1993 - Song Out Of My Trees\01 - Gateway.wav" WAVE
TRACK 01 AUDIO
TITLE "Gateway"
PERFORMER "Henry Threadgill"
FLAGS DCP
INDEX 01 00:00:00
TRACK 02 AUDIO
TITLE "Over The River Club"
PERFORMER "Henry Threadgill"
FLAGS DCP
INDEX 00 09:19:03
FILE "Henry Threadgill - 1993 - Song Out Of My Trees\02 - Over The River Club.wav" WAVE
INDEX 01 00:00:00
TRACK 03 AUDIO
TITLE "Grief"
PERFORMER "Henry Threadgill"
FLAGS DCP
INDEX 00 09:22:38
FILE "Henry Threadgill - 1993 - Song Out Of My Trees\03 - Grief.wav" WAVE
INDEX 01 00:00:00
TRACK 04 AUDIO
TITLE "Crea"
PERFORMER "Henry Threadgill"
FLAGS DCP
INDEX 00 10:09:51
FILE "Henry Threadgill - 1993 - Song Out Of My Trees\04 - Crea.wav" WAVE
INDEX 01 00:00:00
TRACK 05 AUDIO
TITLE "Song Out Of My Trees"
PERFORMER "Henry Threadgill"
FLAGS DCP
INDEX 00 08:44:56
FILE "Henry Threadgill - 1993 - Song Out Of My Trees\05 - Song Out Of My Trees.wav" WAVE
INDEX 01 00:00:00
 
FLUTE FORCE FOUR - FLUTISTRY
REM GENRE "Contemporary Jazz"
REM DATE 1990
REM DISCID 460A5E06
REM COMMENT "ExactAudioCopy v0.99pb5"
PERFORMER "Flute Force Four [Henry Threadgill, James Newton, Pedro Eustache, Melecio Mag..."
TITLE "Flutistry"
FILE "Flute Force Four [Henry Threadgill, James Newton, Pedro Eustache, Melecio Magdaluyo] - 1990 - Flutistry\01 - T.B.A.wav" WAVE
TRACK 01 AUDIO
TITLE "T.B.A"
PERFORMER "Flute Force Four [Henry Threadgill, James Newton, Pedro Eustache, Melecio Mag..."
FLAGS DCP
INDEX 01 00:00:00
TRACK 02 AUDIO
TITLE "Intersection"
PERFORMER "Flute Force Four [Henry Threadgill, James Newton, Pedro Eustache, Melecio Mag..."
FLAGS DCP
INDEX 00 05:36:67
FILE "Flute Force Four [Henry Threadgill, James Newton, Pedro Eustache, Melecio Magdaluyo] - 1990 - Flutistry\02 - Intersection.wav" WAVE
INDEX 01 00:00:00
TRACK 03 AUDIO
TITLE "Luap Nosebor"
PERFORMER "Flute Force Four [Henry Threadgill, James Newton, Pedro Eustache, Melecio Mag..."
FLAGS DCP
INDEX 00 06:51:72
FILE "Flute Force Four [Henry Threadgill, James Newton, Pedro Eustache, Melecio Magdaluyo] - 1990 - Flutistry\03 - Luap Nosebor.wav" WAVE
INDEX 01 00:00:00
TRACK 04 AUDIO
TITLE "Hymn to Wright Reverend"
PERFORMER "Flute Force Four [Henry Threadgill, James Newton, Pedro Eustache, Melecio Mag..."
FLAGS DCP
INDEX 00 09:02:20
FILE "Flute Force Four [Henry Threadgill, James Newton, Pedro Eustache, Melecio Magdaluyo] - 1990 - Flutistry\04 - Hymn to Wright Reverend.wav" WAVE
INDEX 01 00:00:00
TRACK 05 AUDIO
TITLE "Paseo Del Mar"
PERFORMER "Flute Force Four [Henry Threadgill, James Newton, Pedro Eustache, Melecio Mag..."
FLAGS DCP
INDEX 00 06:43:20
FILE "Flute Force Four [Henry Threadgill, James Newton, Pedro Eustache, Melecio Magdaluyo] - 1990 - Flutistry\05 - Paseo Del Mar.wav" WAVE
INDEX 01 00:00:00
TRACK 06 AUDIO
TITLE "Figwig"
PERFORMER "Flute Force Four [Henry Threadgill, James Newton, Pedro Eustache, Melecio Mag..."
FLAGS DCP
INDEX 00 05:55:14
FILE "Flute Force Four [Henry Threadgill, James Newton, Pedro Eustache, Melecio Magdaluyo] - 1990 - Flutistry\06 - Figwig.wav" WAVE
INDEX 01 00:00:00
 
Лог проверки качества
 
LIVE AIR
AUDIOCHECKER v2.0 beta (build 457) - by Dester - opdester@freemail.hu
~~~~~~~~~~~~~~~~~~~~~~~~~~~~~~~~~~
-=== DO NOT EDIT THIS FILE! ===-
Path: ...\Air - 1980 - Live
01 -=- 01 - Eulogy For Charles Clarke.flac -=- CDDA (100%)
02 -=- 02 - Portrait Of Leo Smith.flac -=- CDDA (100%)
03 -=- 03 - Keep Right On Playing Thru The Mirror Over The Water.flac -=- CDDA (100%)
04 -=- 04 - Be Ever Out.flac -=- CDDA (100%)
Summary 100,00% CDDA
57921588
 
AIR MAIL
AUDIOCHECKER v2.0 beta (build 457) - by Dester - opdester@freemail.hu
~~~~~~~~~~~~~~~~~~~~~~~~~~~~~~~~~~
-=== DO NOT EDIT THIS FILE! ===-
Path: ...\Air - 1981 - Air Mail
01 -=- 01 - B.K..flac -=- CDDA (100%)
02 -=- 02 - R.B..flac -=- CDDA (100%)
03 -=- 03 - C.T., J.L..flac -=- CDDA (99%)
Summary 99,67% CDDA
94200388
 
NEW AIR - LIVE AT MONTREAL INTERNATIONAL JAZZ FESTIVAL
AUDIOCHECKER v2.0 beta (build 457) - by Dester - opdester@freemail.hu
~~~~~~~~~~~~~~~~~~~~~~~~~~~~~~~~~~
-=== DO NOT EDIT THIS FILE! ===-
Path: ...\New Air - 1983 - Live at Montreal International Jazz Festival
01 -=- 01 - Sir Simpleton.flac -=- CDDA (100%)
02 -=- 02 - Difda dance.flac -=- CDDA (100%)
03 -=- 03 - Roll on.flac -=- CDDA (100%)
04 -=- 04 - Tragedy on a thursday afternoon.flac -=- CDDA (100%)
05 -=- 05 - No. 1.flac -=- CDDA (99%)
Summary 99,80% CDDA
170704772
 
NEW AIR, CASSANDRA WILSON - AIR SHOW NO. 1
AUDIOCHECKER v2.0 beta (build 457) - by Dester - opdester@freemail.hu
~~~~~~~~~~~~~~~~~~~~~~~~~~~~~~~~~~
-=== DO NOT EDIT THIS FILE! ===-
Path: ...\New Air featuring Cassandra Wilson - 1986 - Air Show No. 1
01 -=- 01 - Achtud El Buod (Children's Song).flac -=- CDDA (100%)
02 -=- 02 - Don't Drink That Corner My Life Is In The Bush.flac -=- CDDA (100%)
03 -=- 03 - Air Show.flac -=- CDDA (100%)
04 -=- 04 - Apricots On Their Wings.flac -=- CDDA (100%)
05 -=- 05 - Salute To The Enema Bandit.flac -=- CDDA (100%)
06 -=- 06 - Side Step.flac -=- CDDA (100%)
Summary 100,00% CDDA
267906836
 
HENRY THREADGILL VERY VERY CIRCUS - SPIRIT OF NUFF...NUFF
AUDIOCHECKER v2.0 beta (build 457) - by Dester - opdester@freemail.hu
~~~~~~~~~~~~~~~~~~~~~~~~~~~~~~~~~~
-=== DO NOT EDIT THIS FILE! ===-
Path: ...\Henry Threadgill Very Very Circus - 1990 - Spirit of Nuff...Nuff
01 -=- 01 - Hope A hope A.flac -=- CDDA (100%)
02 -=- 02 - Unrealistic love.flac -=- CDDA (100%)
03 -=- 03 - Drivin' you slow and crazy.flac -=- CDDA (99%)
04 -=- 04 - Bee Dee Aff.flac -=- CDDA (100%)
05 -=- 05 - First church of this.flac -=- CDDA (100%)
06 -=- 06 - Exacto.flac -=- CDDA (100%)
07 -=- 07 - In the ring.flac -=- CDDA (100%)
Summary 99,86% CDDA
120759748
 
HENRY THREADGILL - SONG OUT OF MY TREES
AUDIOCHECKER v2.0 beta (build 457) - by Dester - opdester@freemail.hu
~~~~~~~~~~~~~~~~~~~~~~~~~~~~~~~~~~
-=== DO NOT EDIT THIS FILE! ===-
Path: ...\Henry Threadgill - 1993 - Song Out Of My Trees
01 -=- 01 - Gateway.flac -=- CDDA (100%)
02 -=- 02 - Over The River Club.flac -=- CDDA (100%)
03 -=- 03 - Grief.flac -=- CDDA (100%)
04 -=- 04 - Crea.flac -=- CDDA (100%)
05 -=- 05 - Song Out Of My Trees.flac -=- CDDA (99%)
Summary 99,80% CDDA
259803828
 
FLUTE FORCE FOUR - FLUTISTRY
AUDIOCHECKER v2.0 beta (build 457) - by Dester - opdester@freemail.hu
~~~~~~~~~~~~~~~~~~~~~~~~~~~~~~~~~~
-=== DO NOT EDIT THIS FILE! ===-
Path: ...\Flute Force Four [Henry Threadgill, James Newton, Pedro Eustache, Melecio Magdaluyo] - 1990 - Flutistry
01 -=- 01 - T.B.A.flac -=- CDDA (100%)
02 -=- 02 - Intersection.flac -=- CDDA (100%)
03 -=- 03 - Luap Nosebor.flac -=- CDDA (100%)
04 -=- 04 - Hymn to Wright Reverend.flac -=- CDDA (100%)
05 -=- 05 - Paseo Del Mar.flac -=- CDDA (100%)
06 -=- 06 - Figwig.flac -=- CDDA (100%)
Summary 100,00% CDDA
58744196
Any questions -> support@pro-jazz.com. По всем вопросам пишите -> support@pro-jazz.com
08:02
204
Нет комментариев. Ваш будет первым!