Вы используете незарегистрированную версию компонента "Вкладки"!

Поиск

(avant-garde) Michel Portal - Bailador {2010 Universal Music France}, FLAC (tracks+.cue) lossless

Треклист:

Michel Portal - Bailador {2010 Universal Music France}
Жанр: avant-garde
Год издания диска: 2010
Издатель (лейбл): Universal Music France
Номер по каталогу: 275 376 6
Аудио кодек: FLAC (*.flac)
Тип рипа: tracks+.cue
Битрейт аудио: lossless
Источник (релизер): what.cd
Наличие сканов в содержимом раздачи: да
Треклист:
01 DOLCE 08'00
02 BAÏLADOR 07'35
03 CUBA SI, CUBA NO 05'50
04 OMBRES 05'07
05 CITRUS JUICE 09'21
06 ALTO BLUES 06'08
07 ONE ON ONE 11'11
08 TUTTI NO HYSTÉRIQUE 03'46
 
Лог создания рипа
Exact Audio Copy V1.0 beta 1 from 15. November 2010
EAC extraction logfile from 22. December 2010, 1:17
Michel Portal / Bailador
Used drive : PLEXTOR DVDR PX-860A Adapter: 0 ID: 0
Read mode : Secure
Utilize accurate stream : Yes
Defeat audio cache : Yes
Make use of C2 pointers : No
Read offset correction : 96
Overread into Lead-In and Lead-Out : No
Fill up missing offset samples with silence : Yes
Delete leading and trailing silent blocks : No
Null samples used in CRC calculations : Yes
Used interface : Native Win32 interface for Win NT & 2000
Gap handling : Appended to previous track
Used output format : User Defined Encoder
Selected bitrate : 1024 kBit/s
Quality : High
Add ID3 tag : No
Command line compressor : C:\Program Files\Exact Audio Copy\flac.exe
Additional command line options : -8 -V -T "ARTIST=%a" -T "TITLE=%t" -T "ALBUM=%g" -T "DATE=%y" -T "TRACKNUMBER=%n" -T "TOTALTRACKS=%x" -T "GENRE=%m" -T "ALBUMARTIST=%v" -T "ALBUM ARTIST=%v" -T "COMMENT=EAC V1.0 beta 1 Secure Mode, Test & Copy, AccurateRip,
TOC of the extracted CD
Track | Start | Length | Start sector | End sector
---------------------------------------------------------
1 | 0:00.00 | 8:01.72 | 0 | 36146
2 | 8:01.72 | 7:36.23 | 36147 | 70369
3 | 15:38.20 | 5:50.20 | 70370 | 96639
4 | 21:28.40 | 5:09.37 | 96640 | 119851
5 | 26:38.02 | 9:26.22 | 119852 | 162323
6 | 36:04.24 | 6:08.42 | 162324 | 189965
7 | 42:12.66 | 11:12.20 | 189966 | 240385
8 | 53:25.11 | 3:48.55 | 240386 | 257540
Track 1
Filename S:\DL\Michel Portal - Bailador (2010) [FLAC]\01 - Dolce.wav
Pre-gap length 0:00:02.00
Peak level 100.0 %
Extraction speed 5.1 X
Track quality 100.0 %
Test CRC 2F154C81
Copy CRC 2F154C81
Track not present in AccurateRip database
Copy OK
Track 2
Filename S:\DL\Michel Portal - Bailador (2010) [FLAC]\02 - Bailador.wav
Pre-gap length 0:00:01.58
Peak level 100.0 %
Extraction speed 5.8 X
Track quality 100.0 %
Test CRC A6EE2AFC
Copy CRC A6EE2AFC
Track not present in AccurateRip database
Copy OK
Track 3
Filename S:\DL\Michel Portal - Bailador (2010) [FLAC]\03 - Cuba Si, Cuba No.wav
Pre-gap length 0:00:01.04
Peak level 100.0 %
Extraction speed 6.4 X
Track quality 100.0 %
Test CRC 9DE9C6C5
Copy CRC 9DE9C6C5
Track not present in AccurateRip database
Copy OK
Track 4
Filename S:\DL\Michel Portal - Bailador (2010) [FLAC]\04 - Ombres.wav
Peak level 100.0 %
Extraction speed 6.0 X
Track quality 99.9 %
Test CRC DEB2024B
Copy CRC DEB2024B
Track not present in AccurateRip database
Copy OK
Track 5
Filename S:\DL\Michel Portal - Bailador (2010) [FLAC]\05 - Citrus Juice.wav
Pre-gap length 0:00:01.36
Peak level 100.0 %
Extraction speed 7.7 X
Track quality 100.0 %
Test CRC 5EB7BDB4
Copy CRC 5EB7BDB4
Track not present in AccurateRip database
Copy OK
Track 6
Filename S:\DL\Michel Portal - Bailador (2010) [FLAC]\06 - Alto Blues.wav
Pre-gap length 0:00:04.43
Peak level 100.0 %
Extraction speed 7.9 X
Track quality 100.0 %
Test CRC 7C755A6D
Copy CRC 7C755A6D
Track not present in AccurateRip database
Copy OK
Track 7
Filename S:\DL\Michel Portal - Bailador (2010) [FLAC]\07 - One on One.wav
Peak level 100.0 %
Extraction speed 8.9 X
Track quality 100.0 %
Test CRC 71586784
Copy CRC 71586784
Track not present in AccurateRip database
Copy OK
Track 8
Filename S:\DL\Michel Portal - Bailador (2010) [FLAC]\08 - Tutti no hysterique.wav
Pre-gap length 0:00:00.61
Peak level 100.0 %
Extraction speed 8.3 X
Track quality 100.0 %
Test CRC E75A3259
Copy CRC E75A3259
Track not present in AccurateRip database
Copy OK
None of the tracks are present in the AccurateRip database
No errors occurred
End of status report
==== Log checksum 3043A45C49B8983C8DE8A71C0B53169A494510D6FC7E720F1632AFA499117427 ====
 
Содержание индексной карты (.CUE)
REM GENRE Jazz
REM DATE 2010
REM DISCID 5A0D6908
REM COMMENT "ExactAudioCopy v1.0b1"
PERFORMER "Michel Portal"
TITLE "Bailador"
FILE "01 - Dolce.wav" WAVE
TRACK 01 AUDIO
TITLE "Dolce"
PERFORMER "Michel Portal"
INDEX 01 00:00:00
TRACK 02 AUDIO
TITLE "Bailador"
PERFORMER "Michel Portal"
INDEX 00 08:00:14
FILE "02 - Bailador.wav" WAVE
INDEX 01 00:00:00
TRACK 03 AUDIO
TITLE "Cuba Si, Cuba No"
PERFORMER "Michel Portal"
INDEX 00 07:35:19
FILE "03 - Cuba Si, Cuba No.wav" WAVE
INDEX 01 00:00:00
FILE "04 - Ombres.wav" WAVE
TRACK 04 AUDIO
TITLE "Ombres"
PERFORMER "Michel Portal"
INDEX 01 00:00:00
TRACK 05 AUDIO
TITLE "Citrus Juice"
PERFORMER "Michel Portal"
INDEX 00 05:08:01
FILE "05 - Citrus Juice.wav" WAVE
INDEX 01 00:00:00
TRACK 06 AUDIO
TITLE "Alto Blues"
PERFORMER "Michel Portal"
INDEX 00 09:21:54
FILE "06 - Alto Blues.wav" WAVE
INDEX 01 00:00:00
FILE "07 - One on One.wav" WAVE
TRACK 07 AUDIO
TITLE "One on One"
PERFORMER "Michel Portal"
INDEX 01 00:00:00
TRACK 08 AUDIO
TITLE "Tutti no hysterique"
PERFORMER "Michel Portal"
INDEX 00 11:11:34
FILE "08 - Tutti no hysterique.wav" WAVE
INDEX 01 00:00:00
 
Состав
MICHEL PORTAL : BASS CLARINET, TENOR & SOPRANO SAXOPHONE,ARRANGEMENTS
AMBROSE AKINMUSIRE: TRUMPET (EXCEPT 4)
BOJAN Z : PIANO, KEYBOARDS, ARRANGEMENTS (EXCEPT 4)
LIONEL LOUEKE : GUITAR (1, 2, 3, 4)
SCOTT COLLEY : DOUBLE BASS (EXCEPT 4)
JACK DEJOHNETTE : DRUMS (EXCEPT 4)
другие релизы
Any questions -> support@pro-jazz.com. По всем вопросам пишите -> support@pro-jazz.com
08:02
143
Нет комментариев. Ваш будет первым!