Вы используете незарегистрированную версию компонента "Вкладки"!

Поиск

(avant-garde) Zusaan Kali Fasteau & Donald Rafael Garrett - Memoirs of a Dream - 1975, 77, FLAC (image+.cue) lossless

Треклист:
Zusaan Kali Fasteau & Donald Rafael Garrett - Memoirs of a Dream /
Жанр: avant-garde
Год издания диска: 1975, 77
Издатель (лейбл): Flying Note
Аудио кодек: FLAC (*.flac)
Тип рипа: image+.cue
Битрейт аудио: lossless
Источник (релизер): nnm
Наличие сканов в содержимом раздачи: да
Треклист:
1. Zenith 14:56
2. Bamboo Groove 15:53
1. Wind and Water 10:20
2. Happiness 11:36
3. Aisha Swing 4:53
4. Coming Storm 3:08
5. Dromedary Dance 3:16
6. Puppy's Play 7:02
7. Vocal Transport 4:09
8. Mongezi Feza 2:31
9. Calling Planet Earth 7:25
10. Sea Horse Procession 2:09
11. Desert Blues 1:56
12. So Much Love 2:41
 
log1
Exact Audio Copy V1.0 beta 1 from 15. November 2010
EAC extraction logfile from 12. January 2011, 14:44
Zusaan Kali Fasteau & Donald Rafael Garrett / Memoirs of a Dream (CD 1)
Used drive : TSSTcorpDVD+-RW TS-L532B Adapter: 1 ID: 0
Read mode : Secure
Utilize accurate stream : Yes
Defeat audio cache : Yes
Make use of C2 pointers : No
Read offset correction : 704
Overread into Lead-In and Lead-Out : No
Fill up missing offset samples with silence : Yes
Delete leading and trailing silent blocks : No
Null samples used in CRC calculations : Yes
Used interface : Native Win32 interface for Win NT & 2000
Used output format : Internal WAV Routines
Sample format : 44.100 Hz; 16 Bit; Stereo
TOC of the extracted CD
Track | Start | Length | Start sector | End sector
---------------------------------------------------------
1 | 0:00.00 | 14:56.41 | 0 | 67240
2 | 14:56.41 | 15:53.52 | 67241 | 138767
Range status and errors
Selected range
Filename C:\Documents and Settings\VB\My Documents\BARIN99\Zusaan Kali Fasteau & Donald Rafael Garrett - Memoirs of a Dream (CD 1)\Zusaan Kali Fasteau & Donald Rafael Garrett - Memoirs of a Dream (CD 1).wav
Peak level 90.5 %
Extraction speed 2.4 X
Range quality 100.0 %
Copy CRC 6D4634AA
Copy OK
No errors occurred
AccurateRip summary
Track 1 not present in database
Track 2 not present in database
None of the tracks are present in the AccurateRip database
End of status report
 
log2
Exact Audio Copy V1.0 beta 1 from 15. November 2010
EAC extraction logfile from 12. January 2011, 16:15
Zusaan Kali Fasteau & Donald Rafael Garrett / Memoirs of a Dream (CD 2)
Used drive : TSSTcorpDVD+-RW TS-L532B Adapter: 1 ID: 0
Read mode : Secure
Utilize accurate stream : Yes
Defeat audio cache : Yes
Make use of C2 pointers : No
Read offset correction : 704
Overread into Lead-In and Lead-Out : No
Fill up missing offset samples with silence : Yes
Delete leading and trailing silent blocks : No
Null samples used in CRC calculations : Yes
Used interface : Native Win32 interface for Win NT & 2000
Used output format : Internal WAV Routines
Sample format : 44.100 Hz; 16 Bit; Stereo
TOC of the extracted CD
Track | Start | Length | Start sector | End sector
---------------------------------------------------------
1 | 0:00.00 | 10:20.46 | 0 | 46545
2 | 10:20.46 | 11:36.00 | 46546 | 98745
3 | 21:56.46 | 4:53.58 | 98746 | 120778
4 | 26:50.29 | 3:08.01 | 120779 | 134879
5 | 29:58.30 | 3:16.23 | 134880 | 149602
6 | 33:14.53 | 7:02.67 | 149603 | 181319
7 | 40:17.45 | 4:09.04 | 181320 | 199998
8 | 44:26.49 | 2:31.04 | 199999 | 211327
9 | 46:57.53 | 7:25.48 | 211328 | 244750
10 | 54:23.26 | 2:09.53 | 244751 | 254478
11 | 56:33.04 | 1:56.29 | 254479 | 263207
12 | 58:29.33 | 2:41.67 | 263208 | 275349
Range status and errors
Selected range
Filename C:\Documents and Settings\VB\My Documents\BARIN99\Zusaan Kali Fasteau & Donald Rafael Garrett - Memoirs of a Dream (CD 2)\Zusaan Kali Fasteau & Donald Rafael Garrett - Memoirs of a Dream (CD 2).wav
Peak level 90.5 %
Extraction speed 0.2 X
Range quality 99.9 %
Copy CRC 5A4CC97E
Copy OK
No errors occurred
AccurateRip summary
Track 1 not present in database
Track 2 not present in database
Track 3 not present in database
Track 4 not present in database
Track 5 not present in database
Track 6 not present in database
Track 7 not present in database
Track 8 not present in database
Track 9 not present in database
Track 10 not present in database
Track 11 not present in database
Track 12 not present in database
None of the tracks are present in the AccurateRip database
End of status report
 
.cue1
REM GENRE Avantgarde
REM DATE 1975
REM DISCID 1B073A02
REM COMMENT "ExactAudioCopy v1.0b1"
PERFORMER "Zusaan Kali Fasteau & Donald Rafael Garrett"
TITLE "Memoirs of a Dream (CD 1)"
FILE "Memoirs of a Dream (CD 1).flac" WAVE
TRACK 01 AUDIO
TITLE "Zenith"
PERFORMER "Zusaan Kali Fasteau & Donald Rafael Garrett"
INDEX 01 00:00:00
TRACK 02 AUDIO
TITLE "Bamboo Groove"
PERFORMER "Zusaan Kali Fasteau & Donald Rafael Garrett"
INDEX 00 14:54:41
INDEX 01 14:56:41
 
.cue2
REM GENRE Avantgarde
REM DATE 1977
REM DISCID AD0E570C
REM COMMENT "ExactAudioCopy v1.0b1"
PERFORMER "Zusaan Kali Fasteau & Donald Rafael Garrett"
TITLE "Memoirs of a Dream (CD 2)"
FILE "Memoirs of a Dream (CD 2).flac" WAVE
TRACK 01 AUDIO
TITLE "Wind and Water"
PERFORMER "Zusaan Kali Fasteau & Donald Rafael Garrett"
INDEX 01 00:00:00
TRACK 02 AUDIO
TITLE "Happiness"
PERFORMER "Zusaan Kali Fasteau & Donald Rafael Garrett"
INDEX 00 10:18:46
INDEX 01 10:20:46
TRACK 03 AUDIO
TITLE "Aisha Swing"
PERFORMER "Zusaan Kali Fasteau & Donald Rafael Garrett"
INDEX 00 21:54:45
INDEX 01 21:56:46
TRACK 04 AUDIO
TITLE "Coming Storm"
PERFORMER "Zusaan Kali Fasteau & Donald Rafael Garrett"
INDEX 00 26:48:29
INDEX 01 26:50:29
TRACK 05 AUDIO
TITLE "Dromedary Dance"
PERFORMER "Zusaan Kali Fasteau & Donald Rafael Garrett"
INDEX 00 29:56:30
INDEX 01 29:58:30
TRACK 06 AUDIO
TITLE "Puppy's Play"
PERFORMER "Zusaan Kali Fasteau & Donald Rafael Garrett"
INDEX 00 33:12:52
INDEX 01 33:14:53
TRACK 07 AUDIO
TITLE "Vocal Transport"
PERFORMER "Zusaan Kali Fasteau & Donald Rafael Garrett"
INDEX 00 40:15:44
INDEX 01 40:17:45
TRACK 08 AUDIO
TITLE "Mongezi Feza"
PERFORMER "Zusaan Kali Fasteau & Donald Rafael Garrett"
INDEX 00 44:24:48
INDEX 01 44:26:49
TRACK 09 AUDIO
TITLE "Calling Planet Earth"
PERFORMER "Zusaan Kali Fasteau & Donald Rafael Garrett"
INDEX 00 46:55:53
INDEX 01 46:57:53
TRACK 10 AUDIO
TITLE "Sea Horse Procession"
PERFORMER "Zusaan Kali Fasteau & Donald Rafael Garrett"
INDEX 00 54:21:26
INDEX 01 54:23:26
TRACK 11 AUDIO
TITLE "Desert Blues"
PERFORMER "Zusaan Kali Fasteau & Donald Rafael Garrett"
INDEX 00 56:31:03
INDEX 01 56:33:04
TRACK 12 AUDIO
TITLE "So Much Love"
PERFORMER "Zusaan Kali Fasteau & Donald Rafael Garrett"
INDEX 00 58:27:33
INDEX 01 58:29:33
 
Состав
Zusaan Kali Fasteau — Cello, Conch, Cumbus, Davul, Flute, Harp, Kaval, Morsing, Nai, Piano, Sanza, Shakuhachi, Sheng, Vocals
David Rafael Garrett — Balafon, Clarinet (Contrabass), Conch, Nai, Percussion, Sanza, Shakuhachi, Vocals
другие релизы
Any questions -> support@pro-jazz.com. По всем вопросам пишите -> support@pro-jazz.com
08:03
152
Нет комментариев. Ваш будет первым!