Вы используете незарегистрированную версию компонента "Вкладки"!

Поиск

(Free Jazz, Free Improvisation) Steve Lacy (Steve Potts, Trevor Watts, Evan Parker, Derek Bailey, Michel Waisvisz, Kent Carter, John Stevens) - Saxophone Special + - 1998 (1973-74), FLAC (tracks+.cue) lossless

(Free Jazz, Free Improvisation) Steve Lacy (Steve Potts, Trevor Watts, Evan Parker, Derek Bailey, Michel Waisvisz, Kent Carter, John Stevens) - Saxophone Special + - 1998 (1973-74), FLAC (tracks+.cue) lossless
Треклист:
Steve Lacy / Saxophone Special +
Жанр: Free Jazz, Free Improvisation
Страна-производитель диска: Великобритания
Год издания диска: 1998 (1973-74)
Издатель (лейбл): Emanem
Номер по каталогу: 4024
Страна: Великобритания
Аудио кодек: FLAC (*.flac)
Тип рипа: tracks+.cue
Битрейт аудио: lossless
Продолжительность: 1:16:54
Источник (релизер): вот.сиди (beatledennis)
Наличие сканов в содержимом раздачи: нет
Треклист:
1 38 12:57
2 Flakes 7:37
3 Revolutionary Suicide 3:39
4 Staples 9:41
5 Dreams 11:24
6 Swishes 5:44
7 Sops 7:08
8 Snaps 9:19
9 Snaps (Alternate) 8:26
Analogue concert records made in London by MARTIN DAVIDSON
1-3 at the 100 Club - 1973 JULY 30
4-9 at the Wigmore Hall - 1974 DECEMBER 19
1-3 originally issued in 1975 on Emanem LP 304
4-8 originally issued in 1976 as Emanem LP 3310
9 previously unissued
All compositions by Steve Lacy
 
Лог создания рипа
X Lossless Decoder version 20100926 (123.1)
XLD extraction logfile from 2010-09-29 16:13:22 +0300
Steve Lacy / Saxophone Special +
Used drive : MATSHITA DVD-R UJ-868 (revision KB19)
Use cdparanoia mode : YES (CDParanoia III 10.2 engine)
Disable audio cache : OK for the drive with cache less than 2750KB
Make use of C2 pointers : NO
Read offset correction : 102
Max retry count : 100
Gap status : Analyzed, Appended
TOC of the extracted CD
Track | Start | Length | Start sector | End sector
---------------------------------------------------------
1 | 00:00:00 | 13:07:52 | 0 | 59076
2 | 13:07:52 | 07:49:12 | 59077 | 94263
3 | 20:56:64 | 04:07:22 | 94264 | 112810
4 | 25:04:11 | 09:41:62 | 112811 | 156447
5 | 34:45:73 | 11:25:55 | 156448 | 207877
6 | 46:11:53 | 05:46:50 | 207878 | 233877
7 | 51:58:28 | 07:08:18 | 233878 | 265995
8 | 59:06:46 | 09:18:24 | 265996 | 307869
9 | 68:24:70 | 08:28:61 | 307870 | 346030
List of alternate offset correction values
# | Absolute | Relative | Confidence
------------------------------------------
1 | 90 | -12 | 2
All Tracks
Album gain : -2.89 dB
Peak : 0.914368
Track 01
Filename : /Users/.../Muzak/Steve Lacy - 1998 - Saxophone Special +/01 - 38.flac
Pre-gap length : 00:02:00
Track gain : -3.74 dB
Peak : 0.829498
CRC32 hash (test run) : 9583EBDF
CRC32 hash : 9583EBDF
CRC32 hash (skip zero) : ECB13BCA
AccurateRip signature : E247ABE1
->Accurately ripped! (confidence 2)
(matched with the different offset correction value;
calculated using an additional offset of -12;
the signature after correction is: 5920A9C7)
Statistics
Read error : 0
Skipped (treated as error) : 0
Edge jitter error (maybe fixed) : 0
Atom jitter error (maybe fixed) : 0
Drift error (maybe fixed) : 0
Dropped bytes error (maybe fixed) : 0
Duplicated bytes error (maybe fixed) : 0
Inconsistency in error sectors : 0
Track 02
Filename : /Users/.../Muzak/Steve Lacy - 1998 - Saxophone Special +/02 - Flakes.flac
Track gain : -0.87 dB
Peak : 0.697205
CRC32 hash (test run) : A60EA3F8
CRC32 hash : A60EA3F8
CRC32 hash (skip zero) : 94D51A08
AccurateRip signature : 3723C0BF
->Accurately ripped! (confidence 2)
(matched with the different offset correction value;
calculated using an additional offset of -12;
the signature after correction is: 0EAE3E0E)
Statistics
Read error : 0
Skipped (treated as error) : 0
Edge jitter error (maybe fixed) : 0
Atom jitter error (maybe fixed) : 0
Drift error (maybe fixed) : 0
Dropped bytes error (maybe fixed) : 0
Duplicated bytes error (maybe fixed) : 0
Inconsistency in error sectors : 0
Track 03
Filename : /Users/.../Muzak/Steve Lacy - 1998 - Saxophone Special +/03 - Revolutionary Suicide .flac
Track gain : -3.92 dB
Peak : 0.726379
CRC32 hash (test run) : F2C58E37
CRC32 hash : F2C58E37
CRC32 hash (skip zero) : 3FD2E7D4
AccurateRip signature : 7AFB2FC4
->Accurately ripped! (confidence 2)
(matched with the different offset correction value;
calculated using an additional offset of -12;
the signature after correction is: D71DF33B)
Statistics
Read error : 0
Skipped (treated as error) : 0
Edge jitter error (maybe fixed) : 0
Atom jitter error (maybe fixed) : 0
Drift error (maybe fixed) : 0
Dropped bytes error (maybe fixed) : 0
Duplicated bytes error (maybe fixed) : 0
Inconsistency in error sectors : 0
Track 04
Filename : /Users/.../Muzak/Steve Lacy - 1998 - Saxophone Special +/04 - Staples .flac
Pre-gap length : 00:07:34
Track gain : -2.36 dB
Peak : 0.896637
CRC32 hash (test run) : C0096C2F
CRC32 hash : C0096C2F
CRC32 hash (skip zero) : D6A082A0
AccurateRip signature : BFA91F86
->Accurately ripped! (confidence 2)
(matched with the different offset correction value;
calculated using an additional offset of -12;
the signature after correction is: F1A7E8C8)
Statistics
Read error : 0
Skipped (treated as error) : 0
Edge jitter error (maybe fixed) : 0
Atom jitter error (maybe fixed) : 0
Drift error (maybe fixed) : 0
Dropped bytes error (maybe fixed) : 0
Duplicated bytes error (maybe fixed) : 0
Inconsistency in error sectors : 0
Track 05
Filename : /Users/.../Muzak/Steve Lacy - 1998 - Saxophone Special +/05 - Dreams.flac
Track gain : -3.56 dB
Peak : 0.877136
CRC32 hash (test run) : 1F46AC5F
CRC32 hash : 1F46AC5F
CRC32 hash (skip zero) : 3C51BAEE
AccurateRip signature : C70AAC1E
->Accurately ripped! (confidence 2)
(matched with the different offset correction value;
calculated using an additional offset of -12;
the signature after correction is: 9879587C)
Statistics
Read error : 0
Skipped (treated as error) : 0
Edge jitter error (maybe fixed) : 0
Atom jitter error (maybe fixed) : 0
Drift error (maybe fixed) : 0
Dropped bytes error (maybe fixed) : 0
Duplicated bytes error (maybe fixed) : 0
Inconsistency in error sectors : 0
Track 06
Filename : /Users/.../Muzak/Steve Lacy - 1998 - Saxophone Special +/06 - Swishes.flac
Track gain : -2.25 dB
Peak : 0.907227
CRC32 hash (test run) : D63C9E67
CRC32 hash : D63C9E67
CRC32 hash (skip zero) : AFEFF499
AccurateRip signature : D70E5FA0
->Accurately ripped! (confidence 2)
(matched with the different offset correction value;
calculated using an additional offset of -12;
the signature after correction is: BB834158)
Statistics
Read error : 0
Skipped (treated as error) : 0
Edge jitter error (maybe fixed) : 0
Atom jitter error (maybe fixed) : 0
Drift error (maybe fixed) : 0
Dropped bytes error (maybe fixed) : 0
Duplicated bytes error (maybe fixed) : 0
Inconsistency in error sectors : 0
Track 07
Filename : /Users/.../Muzak/Steve Lacy - 1998 - Saxophone Special +/07 - Sops.flac
Track gain : 1.41 dB
Peak : 0.557037
CRC32 hash (test run) : 715B3108
CRC32 hash : 715B3108
CRC32 hash (skip zero) : FDD9A521
AccurateRip signature : C2904B9B
->Accurately ripped! (confidence 2)
(matched with the different offset correction value;
calculated using an additional offset of -12;
the signature after correction is: B1D7186B)
Statistics
Read error : 0
Skipped (treated as error) : 0
Edge jitter error (maybe fixed) : 0
Atom jitter error (maybe fixed) : 0
Drift error (maybe fixed) : 0
Dropped bytes error (maybe fixed) : 0
Duplicated bytes error (maybe fixed) : 0
Inconsistency in error sectors : 0
Track 08
Filename : /Users/.../Muzak/Steve Lacy - 1998 - Saxophone Special +/08 - Snaps.flac
Track gain : -2.49 dB
Peak : 0.914368
CRC32 hash (test run) : 599BCEEC
CRC32 hash : 599BCEEC
CRC32 hash (skip zero) : 969B2BF6
AccurateRip signature : B798FBD3
->Accurately ripped! (confidence 2)
(matched with the different offset correction value;
calculated using an additional offset of -12;
the signature after correction is: 85B8287E)
Statistics
Read error : 0
Skipped (treated as error) : 0
Edge jitter error (maybe fixed) : 0
Atom jitter error (maybe fixed) : 0
Drift error (maybe fixed) : 0
Dropped bytes error (maybe fixed) : 0
Duplicated bytes error (maybe fixed) : 0
Inconsistency in error sectors : 0
Track 09
Filename : /Users/.../Muzak/Steve Lacy - 1998 - Saxophone Special +/09 - Snaps (Alternate) .flac
Track gain : -1.99 dB
Peak : 0.869263
CRC32 hash (test run) : B4B34E1E
CRC32 hash : B4B34E1E
CRC32 hash (skip zero) : 428E73FA
AccurateRip signature : 20FE35F8
->Track not present in AccurateRip database.
Statistics
Read error : 0
Skipped (treated as error) : 0
Edge jitter error (maybe fixed) : 0
Atom jitter error (maybe fixed) : 0
Drift error (maybe fixed) : 0
Dropped bytes error (maybe fixed) : 0
Duplicated bytes error (maybe fixed) : 0
Inconsistency in error sectors : 0
No errors occurred
End of status report
 
Содержание индексной карты (.CUE)
TITLE "Saxophone Special +"
PERFORMER "Steve Lacy"
REM GENRE "Jazz"
REM DATE 1998
REM DISCID 7F120509
FILE "01 - 38.wav" WAVE
TRACK 01 AUDIO
TITLE "38"
INDEX 01 00:00:00
FILE "02 - Flakes.wav" WAVE
TRACK 02 AUDIO
TITLE "Flakes"
INDEX 01 00:00:00
FILE "03 - Revolutionary Suicide .wav" WAVE
TRACK 03 AUDIO
TITLE "Revolutionary Suicide "
INDEX 01 00:00:00
TRACK 04 AUDIO
TITLE "Staples "
INDEX 00 03:59:63
FILE "04 - Staples .wav" WAVE
INDEX 01 00:00:00
FILE "05 - Dreams.wav" WAVE
TRACK 05 AUDIO
TITLE "Dreams"
INDEX 01 00:00:00
FILE "06 - Swishes.wav" WAVE
TRACK 06 AUDIO
TITLE "Swishes"
INDEX 01 00:00:00
FILE "07 - Sops.wav" WAVE
TRACK 07 AUDIO
TITLE "Sops"
INDEX 01 00:00:00
FILE "08 - Snaps.wav" WAVE
TRACK 08 AUDIO
TITLE "Snaps"
INDEX 01 00:00:00
FILE "09 - Snaps (Alternate) .wav" WAVE
TRACK 09 AUDIO
TITLE "Snaps (Alternate) "
INDEX 01 00:00:00
 
Лог проверки качества
AUDIOCHECKER v2.0 beta (build 457) - by Dester - opdester@freemail.hu
~~~~~~~~~~~~~~~~~~~~~~~~~~~~~~~~~~
-=== DO NOT EDIT THIS FILE! ===-
Path: ...\Steve Lacy - 1998 - Saxophone Special +
1 -=- 01 - 38.flac -=- CDDA (100%)
2 -=- 02 - Flakes.flac -=- CDDA (100%)
3 -=- 03 - Revolutionary Suicide .flac -=- CDDA (100%)
4 -=- 04 - Staples .flac -=- CDDA (100%)
5 -=- 05 - Dreams.flac -=- CDDA (100%)
6 -=- 06 - Swishes.flac -=- CDDA (100%)
7 -=- 07 - Sops.flac -=- CDDA (85%)
8 -=- 08 - Snaps.flac -=- CDDA (100%)
9 -=- 09 - Snaps (Alternate) .flac -=- CDDA (100%)
Summary 98,33% CDDA
138447892
 
Состав
STEVE LACY soprano saxophone, gramophone
STEVE POTTS soprano & alto saxophones
TREVOR WATTS soprano & alto saxophones
EVAN PARKER soprano, tenor & baritone saxophones
DEREK BAILEY amplified guitar
MICHEL WAISVISZ synthesizer
KENT CARTER amplified double bass
JOHN STEVENS percussion
По всем вопросам пишите личное сообщение пользователю M0p94ok.
08:04
230
Нет комментариев. Ваш будет первым!