Вы используете незарегистрированную версию компонента "Вкладки"!

Поиск

(Free Jazz, Free Improvisation) Henry Threadgill Zooid - This Brings Us To (Volume II) - 2010, FLAC (tracks+.cue) lossless

(Free Jazz, Free Improvisation) Henry Threadgill Zooid - This Brings Us To (Volume II) - 2010, FLAC (tracks+.cue) lossless
Треклист:
Henry Threadgill Zooid / This Brings Us To (Volume II)
Жанр: Free Jazz, Free Improvisation
Страна-производитель диска: США
Год издания диска: 2010
Издатель (лейбл): Pi Recordings
Номер по каталогу: Pi36
Страна: США
Аудио кодек: FLAC (*.flac)
Тип рипа: tracks+.cue
Битрейт аудио: lossless
Продолжительность: 43:33
Источник (релизер): вот.сиди (chuckyd4)
Наличие сканов в содержимом раздачи: нет
Треклист:
1. Lying Eyes 10:04
2. This Brings Us To 6:30
3. Extremely Sweet William 8:08
4. Polymorph 11:29
5. It Never Moved 7:16
 
Лог создания рипа
X Lossless Decoder version 20101208 (126.1)
XLD extraction logfile from 2010-12-07 16:44:54 -0500
Henry Threadgill's Zooid / This Brings Us To, Vol. II
Used drive : HL-DT-ST DVDRW GWA4080MA (revision BE39)
Ripper mode : CDParanoia III 10.2
Disable audio cache : OK for the drive with a cache less than 2750KiB
Make use of C2 pointers : NO
Read offset correction : 667
Max retry count : 100
Gap status : Analyzed, Appended
TOC of the extracted CD
Track | Start | Length | Start sector | End sector
---------------------------------------------------------
1 | 00:00:00 | 10:03:40 | 0 | 45264
2 | 10:03:40 | 06:32:66 | 45265 | 74730
3 | 16:36:31 | 08:09:39 | 74731 | 111444
4 | 24:45:70 | 11:31:74 | 111445 | 163343
5 | 36:17:69 | 07:15:14 | 163344 | 195982
AccurateRip Summary
Track 01 : OK (confidence 2)
Track 02 : OK (confidence 2)
Track 03 : OK (confidence 2)
Track 04 : OK (confidence 2)
Track 05 : OK (confidence 2)
->All tracks accurately ripped.
All Tracks
Album gain : -6.28 dB
Peak : 1.000000
Statistics
Read error : 0
Skipped (treated as error) : 0
Edge jitter error (maybe fixed) : 0
Atom jitter error (maybe fixed) : 0
Drift error (maybe fixed) : 0
Dropped bytes error (maybe fixed) : 0
Duplicated bytes error (maybe fixed) : 0
Track 01
Filename : /Users/Chad/Desktop/What files/Henry Threadgill - This Brings Us To, Volume 2 (2010 FLAC)/01 Henry Threadgill's Zooid - Lying Eyes.flac
Pre-gap length : 00:02:00
Track gain : -5.07 dB
Peak : 0.990784
CRC32 hash (test run) : 70B8216E
CRC32 hash : 70B8216E
CRC32 hash (skip zero) : 4C4084B1
AccurateRip signature : 0AF5E9A3
->Accurately ripped! (confidence 2)
Statistics
Read error : 0
Skipped (treated as error) : 0
Edge jitter error (maybe fixed) : 0
Atom jitter error (maybe fixed) : 0
Drift error (maybe fixed) : 0
Dropped bytes error (maybe fixed) : 0
Duplicated bytes error (maybe fixed) : 0
Inconsistency in error sectors : 0
Track 02
Filename : /Users/Chad/Desktop/What files/Henry Threadgill - This Brings Us To, Volume 2 (2010 FLAC)/02 Henry Threadgill's Zooid - This Brings Us To.flac
Pre-gap length : 00:02:00
Track gain : -4.72 dB
Peak : 1.000000
CRC32 hash (test run) : 0F07310C
CRC32 hash : 0F07310C
CRC32 hash (skip zero) : D9514AA7
AccurateRip signature : D567FACE
->Accurately ripped! (confidence 2)
Statistics
Read error : 0
Skipped (treated as error) : 0
Edge jitter error (maybe fixed) : 0
Atom jitter error (maybe fixed) : 0
Drift error (maybe fixed) : 0
Dropped bytes error (maybe fixed) : 0
Duplicated bytes error (maybe fixed) : 0
Inconsistency in error sectors : 0
Track 03
Filename : /Users/Chad/Desktop/What files/Henry Threadgill - This Brings Us To, Volume 2 (2010 FLAC)/03 Henry Threadgill's Zooid - Extremely Sweet William.flac
Pre-gap length : 00:00:21
Track gain : -7.56 dB
Peak : 1.000000
CRC32 hash (test run) : 773D92DF
CRC32 hash : 773D92DF
CRC32 hash (skip zero) : F84F1954
AccurateRip signature : 6F8485E2
->Accurately ripped! (confidence 2)
Statistics
Read error : 0
Skipped (treated as error) : 0
Edge jitter error (maybe fixed) : 0
Atom jitter error (maybe fixed) : 0
Drift error (maybe fixed) : 0
Dropped bytes error (maybe fixed) : 0
Duplicated bytes error (maybe fixed) : 0
Inconsistency in error sectors : 0
Track 04
Filename : /Users/Chad/Desktop/What files/Henry Threadgill - This Brings Us To, Volume 2 (2010 FLAC)/04 Henry Threadgill's Zooid - Polymorph.flac
Pre-gap length : 00:01:48
Track gain : -5.74 dB
Peak : 1.000000
CRC32 hash (test run) : 8E1E8A44
CRC32 hash : 8E1E8A44
CRC32 hash (skip zero) : C1951686
AccurateRip signature : A1F74AFF
->Accurately ripped! (confidence 2)
Statistics
Read error : 0
Skipped (treated as error) : 0
Edge jitter error (maybe fixed) : 0
Atom jitter error (maybe fixed) : 0
Drift error (maybe fixed) : 0
Dropped bytes error (maybe fixed) : 0
Duplicated bytes error (maybe fixed) : 0
Inconsistency in error sectors : 0
Track 05
Filename : /Users/Chad/Desktop/What files/Henry Threadgill - This Brings Us To, Volume 2 (2010 FLAC)/05 Henry Threadgill's Zooid - It Never Moved.flac
Pre-gap length : 00:02:01
Track gain : -6.85 dB
Peak : 1.000000
CRC32 hash (test run) : 878F6CC1
CRC32 hash : 878F6CC1
CRC32 hash (skip zero) : 716A3FAD
AccurateRip signature : A2E6EAEE
->Accurately ripped! (confidence 2)
Statistics
Read error : 0
Skipped (treated as error) : 0
Edge jitter error (maybe fixed) : 0
Atom jitter error (maybe fixed) : 0
Drift error (maybe fixed) : 0
Dropped bytes error (maybe fixed) : 0
Duplicated bytes error (maybe fixed) : 0
Inconsistency in error sectors : 0
No errors occurred
End of status report
 
Содержание индексной карты (.CUE)
TITLE "This Brings Us To, Vol. II"
PERFORMER "Henry Threadgill's Zooid"
REM GENRE "Jazz"
REM DATE 2010
REM DISCNUMBER 1
REM TOTALDISCS 1
REM DISCID 4E0A3505
FILE "01 Henry Threadgill's Zooid - Lying Eyes.wav" WAVE
TRACK 01 AUDIO
TITLE "Lying Eyes"
SONGWRITER "Henry Threadgill"
INDEX 01 00:00:00
TRACK 02 AUDIO
TITLE "This Brings Us To"
SONGWRITER "Henry Threadgill"
INDEX 00 10:01:40
FILE "02 Henry Threadgill's Zooid - This Brings Us To.wav" WAVE
INDEX 01 00:00:00
TRACK 03 AUDIO
TITLE "Extremely Sweet William"
SONGWRITER "Henry Threadgill"
INDEX 00 06:32:45
FILE "03 Henry Threadgill's Zooid - Extremely Sweet William.wav" WAVE
INDEX 01 00:00:00
TRACK 04 AUDIO
TITLE "Polymorph"
SONGWRITER "Henry Threadgill"
INDEX 00 08:07:66
FILE "04 Henry Threadgill's Zooid - Polymorph.wav" WAVE
INDEX 01 00:00:00
TRACK 05 AUDIO
TITLE "It Never Moved"
SONGWRITER "Henry Threadgill"
INDEX 00 11:29:73
FILE "05 Henry Threadgill's Zooid - It Never Moved.wav" WAVE
INDEX 01 00:00:00
 
Лог проверки качества
AUDIOCHECKER v2.0 beta (build 457) - by Dester - opdester@freemail.hu
~~~~~~~~~~~~~~~~~~~~~~~~~~~~~~~~~~
-=== DO NOT EDIT THIS FILE! ===-
Path: ...\Henry Threadgill - This Brings Us To, Volume 2 (2010 FLAC)
1 -=- 01 Henry Threadgill's Zooid - Lying Eyes.flac -=- CDDA (100%)
2 -=- 02 Henry Threadgill's Zooid - This Brings Us To.flac -=- CDDA (100%)
3 -=- 03 Henry Threadgill's Zooid - Extremely Sweet William.flac -=- CDDA (100%)
4 -=- 04 Henry Threadgill's Zooid - Polymorph.flac -=- CDDA (100%)
5 -=- 05 Henry Threadgill's Zooid - It Never Moved.flac -=- CDDA (100%)
Summary 100,00% CDDA
221416772
 
Состав
Henry Threadgill: flute & alto saxophone
Liberty Ellman: guitar
Jose Davila: trombone and tuba
Stomu Takeishi: bass guitar
Elliot Humberto Kavee: drums
This Brings Us To (Volume I)
Any questions -> support@pro-jazz.com. По всем вопросам пишите -> support@pro-jazz.com
08:01
131
Нет комментариев. Ваш будет первым!