Вы используете незарегистрированную версию компонента "Вкладки"!

Поиск

(Free Jazz, Fusion, Contemporary Jazz) Actis Band (Carlo Actis Dato) - Garibaldi - 2003, (image+.cue), lossless

(Free Jazz, Fusion, Contemporary Jazz) Actis Band (Carlo Actis Dato) - Garibaldi - 2003, (image+.cue), lossless
Треклист:
Actis Band / Garibaldi
Жанр: Free Jazz, Fusion, Contemporary Jazz
Страна-производитель диска: UK
Год издания: 2003
Издатель (лейбл): Leo Records
Номер по каталогу: CD LR 365
Аудиокодек: FLAC (*.flac)
Тип рипа: image+.cue
Битрейт аудио: lossless
Продолжительность: 67:51
Источник (релизер): cd
Наличие сканов в содержимом раздачи: нет
Треклист:
1 Vulcano Boro 7:39
2 Oued 7:02
3 Viva Zapata 5:18
4 Miso Soup 6:48
5 Porci Padani 4:24
6 Dulcinea 7:49
7 Makeba 5:57
8 Agdz 6:13
9 Taihenda 8:06
10 Polpi D'Otranto 8:31
 
Лог создания рипа
Exact Audio Copy V1.0 beta 2 from 29. April 2011
EAC extraction logfile from 18. July 2013, 12:31
Actis Band / Garibaldi
Used drive : Optiarc DVD RW AD-7170A Adapter: 0 ID: 0
Read mode : Secure
Utilize accurate stream : Yes
Defeat audio cache : Yes
Make use of C2 pointers : No
Read offset correction : 48
Overread into Lead-In and Lead-Out : No
Fill up missing offset samples with silence : Yes
Delete leading and trailing silent blocks : No
Null samples used in CRC calculations : Yes
Used interface : Native Win32 interface for Win NT & 2000
Used output format : User Defined Encoder
Selected bitrate : 320 kBit/s
Quality : High
Add ID3 tag : No
Command line compressor : C:\Program Files\Exact Audio Copy\Flac\flac.exe
Additional command line options : -V -8 -T "Date=%year%" -T "Genre=%genre%" %source%
TOC of the extracted CD
Track | Start | Length | Start sector | End sector
---------------------------------------------------------
1 | 0:00.00 | 7:39.59 | 0 | 34483
2 | 7:39.59 | 7:02.45 | 34484 | 66178
3 | 14:42.29 | 5:18.14 | 66179 | 90042
4 | 20:00.43 | 6:48.22 | 90043 | 120664
5 | 26:48.65 | 4:24.42 | 120665 | 140506
6 | 31:13.32 | 7:49.30 | 140507 | 175711
7 | 39:02.62 | 5:57.69 | 175712 | 202555
8 | 45:00.56 | 6:13.36 | 202556 | 230566
9 | 51:14.17 | 8:06.20 | 230567 | 267036
10 | 59:20.37 | 8:31.02 | 267037 | 305363
Range status and errors
Selected range
Filename K:\ЕАС\Actis Band - Garibaldi.wav
Peak level 96.6 %
Extraction speed 2.2 X
Range quality 100.0 %
Test CRC 8D7CB7CD
Copy CRC 8D7CB7CD
Copy OK
No errors occurred
AccurateRip summary
Track 1 cannot be verified as accurate (confidence 1) [889F11A7], AccurateRip returned [B8E4FA01] (AR v2)
Track 2 cannot be verified as accurate (confidence 1) [472CB1D8], AccurateRip returned [87F0C859] (AR v2)
Track 3 cannot be verified as accurate (confidence 1) [487D9518], AccurateRip returned [D8B8B08E] (AR v2)
Track 4 cannot be verified as accurate (confidence 1) [CFD62845], AccurateRip returned [14A42373] (AR v2)
Track 5 cannot be verified as accurate (confidence 1) [106CC018], AccurateRip returned [FA542655] (AR v2)
Track 6 cannot be verified as accurate (confidence 1) [BA844E80], AccurateRip returned [ABD6BFAC] (AR v2)
Track 7 cannot be verified as accurate (confidence 1) [A17A3976], AccurateRip returned [AD9960B3] (AR v2)
Track 8 cannot be verified as accurate (confidence 1) [94085E94], AccurateRip returned [E99A0808] (AR v2)
Track 9 cannot be verified as accurate (confidence 1) [F6A2DAE2], AccurateRip returned [E7518F9D] (AR v2)
Track 10 cannot be verified as accurate (confidence 1) [C560C0AD], AccurateRip returned [56F55785] (AR v2)
No tracks could be verified as accurate
You may have a different pressing from the one(s) in the database
End of status report
==== Log checksum A6F720C0B02A3FC41EE3733C074BCF8784F2CC9767701F2EFB481998335C413C ====
 
Содержание индексной карты (.CUE)
REM GENRE Jazz
REM DATE 2003
REM DISCID 7B0FE70A
REM COMMENT "ExactAudioCopy v1.0b2"
PERFORMER "Actis Band"
TITLE "Garibaldi"
FILE "Actis Band - Garibaldi.flac" WAVE
TRACK 01 AUDIO
TITLE "Vulcano Boro"
PERFORMER "Actis Band"
ISRC 000000000000
INDEX 01 00:00:00
TRACK 02 AUDIO
TITLE "Oued"
PERFORMER "Actis Band"
ISRC 000000000000
INDEX 00 07:36:01
INDEX 01 07:39:59
TRACK 03 AUDIO
TITLE "Viva Zapata"
PERFORMER "Actis Band"
ISRC 000000000000
INDEX 00 14:38:47
INDEX 01 14:42:29
TRACK 04 AUDIO
TITLE "Miso Soup"
PERFORMER "Actis Band"
ISRC 000000000000
INDEX 00 19:56:60
INDEX 01 20:00:43
TRACK 05 AUDIO
TITLE "Porci Padani"
PERFORMER "Actis Band"
ISRC 000000000000
INDEX 00 26:45:07
INDEX 01 26:48:65
TRACK 06 AUDIO
TITLE "Dulcinea"
PERFORMER "Actis Band"
ISRC 000000000000
INDEX 00 31:09:49
INDEX 01 31:13:32
TRACK 07 AUDIO
TITLE "Makeba"
PERFORMER "Actis Band"
ISRC 000000000000
INDEX 00 38:59:04
INDEX 01 39:02:62
TRACK 08 AUDIO
TITLE "Agdz"
PERFORMER "Actis Band"
ISRC 000000000000
INDEX 00 44:56:74
INDEX 01 45:00:56
TRACK 09 AUDIO
TITLE "Taihenda"
PERFORMER "Actis Band"
ISRC 000000000000
INDEX 00 51:10:35
INDEX 01 51:14:17
TRACK 10 AUDIO
TITLE "Polpi d'Otranto"
PERFORMER "Actis Band"
ISRC 000000000000
INDEX 00 59:16:54
INDEX 01 59:20:37
Доп. информация: Recorded on 7/8 July 2002 at Studiottanta, Caliano, Italy
 
Состав
Alto Saxophone, Soprano Saxophone – Massimo Rossi
Baritone Saxophone, Tenor Saxophone, Clarinet – Carlo Actis Dato
Drums – Dario Bruna
Electric Bass, Acoustic Bass – Federico Marchesano
Guitar – Antonio Fontana
По всем вопросам пишите личное сообщение пользователю M0p94ok.
16:19
186
Нет комментариев. Ваш будет первым!