Поиск

(Free Improvisation) Steve Lacy & Evan Parker - Chirps - 1991, (tracks+.cue), lossless

(Free Improvisation) Steve Lacy & Evan Parker - Chirps - 1991, (tracks+.cue), lossless
Треклист:
Steve Lacy & Evan Parker - Chirps
Жанр: Free Improvisation
Страна-производитель диска: Germany
Год издания: 1991
Издатель (лейбл): FMP
Номер по каталогу: FMP CD 29
Аудиокодек: FLAC (*.flac)
Тип рипа: tracks+.cue
Битрейт аудио: lossless
Продолжительность: 60 min.
Источник (релизер): собственный рип с оригинального диска.
Наличие сканов в содержимом раздачи: да
Треклист:
The Concert
01. Full Scale 20:51
02. Relations 16:35
03. Twittering 4:14
After Hours
04. Nocturnal Chirps 1 6:03
05. Nocturnal Chirps 2 5:39
06. Nocturnal Chirps 3 5:45
 
Лог создания рипа
Exact Audio Copy V1.0 beta 3 from 29. August 2011
EAC extraction logfile from 28. March 2013, 13:03
Steve Lacy & Evan Parker / Chirps
Used drive : TSSTcorpCDDVDW SH-S222A Adapter: 1 ID: 0
Read mode : Secure
Utilize accurate stream : Yes
Defeat audio cache : Yes
Make use of C2 pointers : No
Read offset correction : 6
Overread into Lead-In and Lead-Out : No
Fill up missing offset samples with silence : Yes
Delete leading and trailing silent blocks : No
Null samples used in CRC calculations : Yes
Used interface : Native Win32 interface for Win NT & 2000
Gap handling : Appended to previous track
Used output format : User Defined Encoder
Selected bitrate : 1024 kBit/s
Quality : High
Add ID3 tag : No
Command line compressor : C:\Tool\CD\EAC10\FLAC\FLAC.EXE
Additional command line options : -8 -V -T "ARTIST=%artist%" -T "TITLE=%title%" -T "ALBUM=%albumtitle%" -T "DATE=%year%" -T "TRACKNUMBER=%tracknr%" -T "GENRE=%genre%" -T "PERFORMER=%albuminterpret%" -T "COMPOSER=%composer%" %haslyrics%--tag-from-file=LYRICS="%lyricsfile%"%haslyrics% -T "ALBUMARTIST=%albumartist%" -T "ALBUM ARTIST=%albumartist%" -T "DISCNUMBER=%cdnumber%" -T "TOTALDISCS=%totalcds%" -T "TOTALTRACKS=%numtracks%" -T "COMMENT=EAC V1.0 beta 3, Secure Mode, Test & Copy, AccurateRip, FLAC -8" %source% -o %dest%
TOC of the extracted CD
Track | Start | Length | Start sector | End sector
---------------------------------------------------------
1 | 0:00.00 | 20:51.28 | 0 | 93852
2 | 20:51.28 | 16:35.15 | 93853 | 168492
3 | 37:26.43 | 4:14.50 | 168493 | 187592
4 | 41:41.18 | 6:03.00 | 187593 | 214817
5 | 47:44.18 | 5:39.32 | 214818 | 240274
6 | 53:23.50 | 5:45.73 | 240275 | 266222
Track 1
Filename C:\! LUSHLIFE\UL\Steve Lacy & Evan Parker - Chirps (1991) [FLAC] {FMP 29}\01 - Full Scale.wav
Pre-gap length 0:00:02.00
Peak level 78.6 %
Extraction speed 3.7 X
Track quality 100.0 %
Test CRC 0AD3EBC1
Copy CRC 0AD3EBC1
Accurately ripped (confidence 3) [ACDD1848] (AR v1)
Copy OK
Track 2
Filename C:\! LUSHLIFE\UL\Steve Lacy & Evan Parker - Chirps (1991) [FLAC] {FMP 29}\02 - Relations.wav
Peak level 68.7 %
Extraction speed 3.7 X
Track quality 100.0 %
Test CRC 650F5DFF
Copy CRC 650F5DFF
Accurately ripped (confidence 3) [60EE5794] (AR v1)
Copy OK
Track 3
Filename C:\! LUSHLIFE\UL\Steve Lacy & Evan Parker - Chirps (1991) [FLAC] {FMP 29}\03 - Twittering.wav
Peak level 55.7 %
Extraction speed 3.3 X
Track quality 100.0 %
Test CRC 4D9E0FC7
Copy CRC 4D9E0FC7
Accurately ripped (confidence 3) [C5F67104] (AR v1)
Copy OK
Track 4
Filename C:\! LUSHLIFE\UL\Steve Lacy & Evan Parker - Chirps (1991) [FLAC] {FMP 29}\04 - Nocturnal Chirps 1.wav
Peak level 76.3 %
Extraction speed 3.5 X
Track quality 100.0 %
Test CRC 6EB086BC
Copy CRC 6EB086BC
Accurately ripped (confidence 3) [E92471F5] (AR v1)
Copy OK
Track 5
Filename C:\! LUSHLIFE\UL\Steve Lacy & Evan Parker - Chirps (1991) [FLAC] {FMP 29}\05 - Nocturnal Chirps 2.wav
Peak level 56.3 %
Extraction speed 3.4 X
Track quality 100.0 %
Test CRC D9FFE8EF
Copy CRC D9FFE8EF
Accurately ripped (confidence 3) [6F71D4A6] (AR v1)
Copy OK
Track 6
Filename C:\! LUSHLIFE\UL\Steve Lacy & Evan Parker - Chirps (1991) [FLAC] {FMP 29}\06 - Nocturnal Chirps 3.wav
Peak level 54.5 %
Extraction speed 3.2 X
Track quality 100.0 %
Test CRC AFCB3C3E
Copy CRC AFCB3C3E
Accurately ripped (confidence 3) [0B763CC0] (AR v1)
Copy OK
All tracks accurately ripped
No errors occurred
End of status report
---- CUETools DB Plugin V2.1.3
[CTDB TOCID: oZE8xsdaNVXwnjvbiKxc4XF_g3M-] disk not present in database, Submit result: oZE8xsdaNVXwnjvbiKxc4XF_g3M- has been uploaded
==== Log checksum 9881AABB995257348375B718D9322C8FE63BA0D44D94886003E2422E60C33C9E ====
 
Содержание индексной карты (.CUE)
REM GENRE Jazz
REM DATE 1991
REM DISCID 470DDD06
REM COMMENT "ExactAudioCopy v1.0b3"
PERFORMER "Steve Lacy & Evan Parker"
TITLE "Chirps"
FILE "01 - Full Scale.wav" WAVE
TRACK 01 AUDIO
TITLE "Full Scale"
PERFORMER "Steve Lacy & Evan Parker"
INDEX 01 00:00:00
FILE "02 - Relations.wav" WAVE
TRACK 02 AUDIO
TITLE "Relations"
PERFORMER "Steve Lacy & Evan Parker"
INDEX 01 00:00:00
FILE "03 - Twittering.wav" WAVE
TRACK 03 AUDIO
TITLE "Twittering"
PERFORMER "Steve Lacy & Evan Parker"
INDEX 01 00:00:00
FILE "04 - Nocturnal Chirps 1.wav" WAVE
TRACK 04 AUDIO
TITLE "Nocturnal Chirps 1"
PERFORMER "Steve Lacy & Evan Parker"
INDEX 01 00:00:00
FILE "05 - Nocturnal Chirps 2.wav" WAVE
TRACK 05 AUDIO
TITLE "Nocturnal Chirps 2"
PERFORMER "Steve Lacy & Evan Parker"
INDEX 01 00:00:00
FILE "06 - Nocturnal Chirps 3.wav" WAVE
TRACK 06 AUDIO
TITLE "Nocturnal Chirps 3"
PERFORMER "Steve Lacy & Evan Parker"
INDEX 01 00:00:00
Доп. информация:
Recorded live on July 18th, 1985 during the concert series Summer Music at the Haus am Waldsee in Berlin, Germany.
 
Об альбоме (from DO)
Chirps is an all-soprano classic from masters of the straight horn Lacy and Parker. It captures three long tracks that were performed live in July 1985, plus three more that were recorded after the audience left the hall. The two musicians meld their distinct styles in seamless and surprising ways. Sleek and beautiful sounds.
 
Об альбоме (by Tim Niland)
The title of the album references bird calls, and the music follows suit with both men focusing on short bursts of notes and passages that flitter and fly through the music giving the music a light and nimble feeling.
Fans of openly improvised music and free jazz will really enjoy this album, there was no show-boating or egos at play, just a meeting of the minds that created a very successful album.
 
Об альбоме (by Thom Jurek)
It is fascinating to hear how these soloists come just behind one another, as if the entire thought appeared in the moment of the other's first note! This improvisation swings the hardest as each man takes part in creating "rhythm" from the spaces in between themes. They actually end up in the same place at the same time more often than not.
This is essential listening for Lacy and/or Parker fans. Many kudos to FMP for this one.
 
Состав
Evan Parker - soprano saxophone (left channel)
Steve Lacy - soprano saxophone (right channel)
По всем вопросам пишите личное сообщение пользователю M0p94ok.
16:18
247
Нет комментариев. Ваш будет первым!