Вы используете незарегистрированную версию компонента "Вкладки"!

Поиск

(Free Jazz, Contemporary Jazz) Loren Stillman (John Hebert, Take Toriyama) - Trio Alto, Vol. 2 - 2007, (image+.cue), lossless

(Free Jazz, Contemporary Jazz) Loren Stillman (John Hebert, Take Toriyama) - Trio Alto, Vol. 2 - 2007, (image+.cue), lossless
Треклист:
Loren Stillman / Trio Alto, Vol. 2
Жанр: Free Jazz, Contemporary Jazz
Страна-производитель диска: Denmark
Год издания: 2007
Издатель (лейбл): SteepleChase
Номер по каталогу: SCCD 31621
Аудиокодек: FLAC (*.flac)
Тип рипа: image+.cue
Битрейт аудио: lossless
Продолжительность: 67:42
Источник (релизер): cd
Наличие сканов в содержимом раздачи: нет
Треклист:
1 Stumbling Down a Path 7:03
2 Sonic Boom 9:40
3 Neither Here Nor There 6:56
4 Liquid Radio 9:08
5 Sticks & Stones 7:53
6 A Bright Idea 5:11
7 All Over the Place 14:32
8 Accelerated Scenario 7:02
 
Лог создания рипа
Exact Audio Copy V1.0 beta 2 from 29. April 2011
EAC extraction logfile from 19. July 2013, 11:49
Loren Stillman / Trio Alto, Vol. 2
Used drive : Optiarc DVD RW AD-7170A Adapter: 0 ID: 0
Read mode : Secure
Utilize accurate stream : Yes
Defeat audio cache : Yes
Make use of C2 pointers : No
Read offset correction : 48
Overread into Lead-In and Lead-Out : No
Fill up missing offset samples with silence : Yes
Delete leading and trailing silent blocks : No
Null samples used in CRC calculations : Yes
Used interface : Native Win32 interface for Win NT & 2000
Used output format : User Defined Encoder
Selected bitrate : 320 kBit/s
Quality : High
Add ID3 tag : No
Command line compressor : C:\Program Files\Exact Audio Copy\Flac\flac.exe
Additional command line options : -V -8 -T "Date=%year%" -T "Genre=%genre%" %source%
TOC of the extracted CD
Track | Start | Length | Start sector | End sector
---------------------------------------------------------
1 | 0:00.00 | 7:06.00 | 0 | 31949
2 | 7:06.00 | 9:42.25 | 31950 | 75624
3 | 16:48.25 | 6:58.53 | 75625 | 107027
4 | 23:47.03 | 9:10.10 | 107028 | 148287
5 | 32:57.13 | 7:55.65 | 148288 | 183977
6 | 40:53.03 | 5:13.06 | 183978 | 207458
7 | 46:06.09 | 14:34.23 | 207459 | 273031
8 | 60:40.32 | 7:01.63 | 273032 | 304669
Range status and errors
Selected range
Filename K:\ЕАС\Loren Stillman - Trio Alto, Vol. 2.wav
Peak level 98.8 %
Extraction speed 2.0 X
Range quality 100.0 %
Test CRC 3D17F73E
Copy CRC 3D17F73E
Copy OK
No errors occurred
AccurateRip summary
Track 1 accurately ripped (confidence 1) [00848807] (AR v1)
Track 2 accurately ripped (confidence 1) [DA238136] (AR v1)
Track 3 cannot be verified as accurate (confidence 1) [BAC31A29], AccurateRip returned [2DC6488A] (AR v2)
Track 4 accurately ripped (confidence 1) [C8EBE32B] (AR v1)
Track 5 accurately ripped (confidence 1) [49D30468] (AR v1)
Track 6 accurately ripped (confidence 1) [B79338C9] (AR v1)
Track 7 accurately ripped (confidence 1) [BC80CE8C] (AR v1)
Track 8 accurately ripped (confidence 1) [02A50124] (AR v1)
7 трек(и) скопированы точно
1 трек(и) не удалось проверить на точность
Some tracks could not be verified as accurate
End of status report
==== Log checksum F631AC9EF8F87A29746DABC57D4B137514F705C072F3FC66E82262C7117173BE ====
 
Содержание индексной карты (.CUE)
REM GENRE Jazz
REM DATE 2007
REM DISCID 720FDE08
REM COMMENT "ExactAudioCopy v1.0b2"
PERFORMER "Loren Stillman"
TITLE "Trio Alto, Vol. 2"
FILE "Loren Stillman - Trio Alto, Vol. 2.flac" WAVE
TRACK 01 AUDIO
TITLE "Stumbling Down a Path"
PERFORMER "Loren Stillman"
ISRC DKARS0701401
INDEX 01 00:00:00
TRACK 02 AUDIO
TITLE "Sonic Boom"
PERFORMER "Loren Stillman"
ISRC DKARS0701402
INDEX 00 07:02:72
INDEX 01 07:06:00
TRACK 03 AUDIO
TITLE "Neither Here Nor There"
PERFORMER "Loren Stillman"
ISRC DKARS0701403
INDEX 00 16:45:22
INDEX 01 16:48:25
TRACK 04 AUDIO
TITLE "Liquid Radio"
PERFORMER "Loren Stillman"
ISRC DKARS0701404
INDEX 00 23:44:00
INDEX 01 23:47:03
TRACK 05 AUDIO
TITLE "Sticks & Stones"
PERFORMER "Loren Stillman"
ISRC DKARS0701405
INDEX 00 32:54:10
INDEX 01 32:57:13
TRACK 06 AUDIO
TITLE "A Bright Idea"
PERFORMER "Loren Stillman"
ISRC DKARS0701406
INDEX 00 40:50:00
INDEX 01 40:53:03
TRACK 07 AUDIO
TITLE "All Over the Place"
PERFORMER "Loren Stillman"
ISRC DKARS0701407
INDEX 00 46:03:06
INDEX 01 46:06:09
TRACK 08 AUDIO
TITLE "Accelerated Scenario"
PERFORMER "Loren Stillman"
ISRC DKARS0701408
INDEX 00 60:37:29
INDEX 01 60:40:32
Доп. информация: Recorded April 2006
 
Об альбоме (сборнике)
"Alto saxophonist Loren Stillman's seventh release as a leader features eight demanding originals that push the envelope toward free jazz while maintaining a degree of accessibility. With terrific support form bassist John Hebert and drummer Take Toriyama, Stillman's adventurous flights on his instrument suggest the influence of altoist Lee Konitz and tenorist Sonny Rollins among others, while the lack of piano or guitar gives him a greater degree of freedom for his explorations. Highlights include the haunting "Sonic Boom," the eerie "Sticks & Stones" and the well-named extended work "All Over the Place," the latter featuring a compelling solo introduction by Hebert. This is a promising session by a jazz musician clearly deserving of wider recognition."
"The trio plays hard, sensitive, tight, open, structured, free, ... not easy to classify, but fun from beginning to end. The musicians are excellent : Stillman's tone is warm and rich, and his improvizations are absolutely great and inventive : he goes on without ever loosing sight of the basic melody, without needing to abandon the clarity of his tone to keep the attention going. But his calm and restraint are nicely balanced with the power of the rhythm section. Toriyama on drums is really strong, hard-hitting (real hard at times!), energetic and creative, and Herbert holds the center, keeping the core melody, but often reacting extremely well to Stillman's improvizational excursions. The music is well-structured, controlled, but real free. A great balance. A great album."
 
Состав
John Hebert Bass
Joe Rosenberg Recording
Loren Stillman Primary Artist, Sax (Alto)
Take Toriyama Drums
По всем вопросам пишите личное сообщение пользователю M0p94ok.
16:20
189
Нет комментариев. Ваш будет первым!