Вы используете незарегистрированную версию компонента "Вкладки"!

Поиск

(Free Improvisation, Enja Records) Glenn Ferris Trio - Chrominance - 2001, (tracks+.cue), lossless

(Free Improvisation, Enja Records) Glenn Ferris Trio - Chrominance - 2001, (tracks+.cue), lossless
Треклист:
Glenn Ferris Trio / Chrominance
Жанр: Free Improvisation, Enja Records
Страна-производитель диска: Germany
Год издания: 2001
Издатель (лейбл): Enja Records
Номер по каталогу: enja CD 9132-2
Аудиокодек: FLAC (*.flac)
Тип рипа: tracks+.cue
Битрейт аудио: lossless
Продолжительность: 1:00:32
Источник (релизер): Max Monteiro
Наличие сканов в содержимом раздачи: нет
Треклист:
01. A Quote from Clifford Brow 4:10
02. Boy Boy 6:18
03. Holy 6:10
04. Light ‘n Up 6:19
05. I’ve Got You Under My Skin 2:09
06. Happy Daze 10:16
07. In My Dream 5:24
08. The Inner Life 6:42
09. When the Night Turns Into Day 7:03
10. Like a Fairytale of Magic 6:02
All compositions by Glenn Gerris except 1 (Roland Kirk) and 5 (Cole Porter).
Recorded on June 20, 2000 at Studio Gil Evans (France).
Glenn Ferris – Trombone
Bruno Rousselet – Bass
Jeff Boudreaux – Drums
 
Лог создания рипа
Exact Audio Copy V1.0 beta 3 from 29. August 2011
EAC extraction logfile from 17. July 2013, 14:36
Glenn Ferris Trio / Chrominance
Used drive : SlimtypeeNAU508 5 Adapter: 1 ID: 0
Read mode : Secure
Utilize accurate stream : Yes
Defeat audio cache : Yes
Make use of C2 pointers : No
Read offset correction : 6
Overread into Lead-In and Lead-Out : No
Fill up missing offset samples with silence : Yes
Delete leading and trailing silent blocks : No
Null samples used in CRC calculations : Yes
Used interface : Native Win32 interface for Win NT & 2000
Gap handling : Appended to previous track
Used output format : User Defined Encoder
Selected bitrate : 768 kBit/s
Quality : High
Add ID3 tag : No
Command line compressor : C:\Program Files (x86)\Exact Audio Copy\Flac\flac.exe
Additional command line options : -8 -V -T "ARTIST=%artist%" -T "TITLE=%title%" -T "ALBUM=%albumtitle%" -T "DATE=%year%" -T "TRACKNUMBER=%tracknr%" -T "GENRE=%genre%" -T "PERFORMER=%albuminterpret%" -T "COMPOSER=%composer%" %haslyrics%--tag-from-file=LYRICS="%lyricsfile%"%haslyrics% -T "ALBUMARTIST=%albumartist%" -T "DISCNUMBER=%cdnumber%" -T "TOTALDISCS=%totalcds%" -T "TOTALTRACKS=%numtracks%" -T "COMMENT=%comment%" %source% -o %dest%
TOC of the extracted CD
Track | Start | Length | Start sector | End sector
---------------------------------------------------------
1 | 0:00.32 | 4:09.73 | 32 | 18779
2 | 4:10.30 | 6:17.72 | 18780 | 47126
3 | 10:28.27 | 6:10.25 | 47127 | 74901
4 | 16:38.52 | 6:18.43 | 74902 | 103294
5 | 22:57.20 | 2:08.60 | 103295 | 112954
6 | 25:06.05 | 10:16.12 | 112955 | 159166
7 | 35:22.17 | 5:23.60 | 159167 | 183451
8 | 40:46.02 | 6:41.73 | 183452 | 213599
9 | 47:28.00 | 7:02.55 | 213600 | 245304
10 | 54:30.55 | 6:01.40 | 245305 | 272419
Track 1
Filename C:\EAC rips\01 - A Quote from Clifford Brown.wav
Pre-gap length 0:00:02.32
Peak level 100.0 %
Extraction speed 1.0 X
Track quality 99.9 %
Test CRC 415CB280
Copy CRC 415CB280
Track not present in AccurateRip database
Copy OK
Track 2
Filename C:\EAC rips\02 - Boy Boy.wav
Pre-gap length 0:00:04.05
Peak level 100.0 %
Extraction speed 1.3 X
Track quality 100.0 %
Test CRC 34759E4C
Copy CRC 34759E4C
Track not present in AccurateRip database
Copy OK
Track 3
Filename C:\EAC rips\03 - Holy.wav
Pre-gap length 0:00:03.25
Peak level 100.0 %
Extraction speed 1.5 X
Track quality 100.0 %
Test CRC 219C1DA6
Copy CRC 219C1DA6
Track not present in AccurateRip database
Copy OK
Track 4
Filename C:\EAC rips\04 - Light 'n Up.wav
Pre-gap length 0:00:03.12
Peak level 100.0 %
Extraction speed 1.5 X
Track quality 100.0 %
Test CRC A2A84205
Copy CRC A2A84205
Track not present in AccurateRip database
Copy OK
Track 5
Filename C:\EAC rips\05 - I've Got You Under My Skin.wav
Pre-gap length 0:00:04.60
Peak level 100.0 %
Extraction speed 1.1 X
Track quality 99.9 %
Test CRC 37596BBA
Copy CRC 37596BBA
Track not present in AccurateRip database
Copy OK
Track 6
Filename C:\EAC rips\06 - Happy Daze.wav
Pre-gap length 0:00:03.65
Peak level 100.0 %
Extraction speed 1.9 X
Track quality 99.9 %
Test CRC 1CFFF25C
Copy CRC 1CFFF25C
Track not present in AccurateRip database
Copy OK
Track 7
Filename C:\EAC rips\07 - In My Dream.wav
Pre-gap length 0:00:03.17
Peak level 100.0 %
Extraction speed 1.9 X
Track quality 100.0 %
Test CRC DD2CDAE2
Copy CRC DD2CDAE2
Track not present in AccurateRip database
Copy OK
Track 8
Filename C:\EAC rips\08 - The Inner Life.wav
Pre-gap length 0:00:04.10
Peak level 100.0 %
Extraction speed 2.1 X
Track quality 100.0 %
Test CRC FFC7F51F
Copy CRC FFC7F51F
Track not present in AccurateRip database
Copy OK
Track 9
Filename C:\EAC rips\09 - When the Night Turns Into Day.wav
Pre-gap length 0:00:05.50
Peak level 100.0 %
Extraction speed 2.3 X
Track quality 100.0 %
Test CRC FF54A260
Copy CRC FF54A260
Track not present in AccurateRip database
Copy OK
Track 10
Filename C:\EAC rips\10 - Like a Fairytale of Magic.wav
Pre-gap length 0:00:03.53
Peak level 100.0 %
Extraction speed 2.1 X
Track quality 99.9 %
Test CRC 08075E61
Copy CRC 08075E61
Track not present in AccurateRip database
Copy OK
None of the tracks are present in the AccurateRip database
No errors occurred
End of status report
---- CUETools DB Plugin V2.1.4
[CTDB TOCID: V2SyTKM.fHTCSD.r1bE7E715jZs-] found
Submit result: already submitted
Track | CTDB Status
1 | (1/1) Accurately ripped
2 | (1/1) Accurately ripped
3 | (1/1) Accurately ripped
4 | (1/1) Accurately ripped
5 | (1/1) Accurately ripped
6 | (1/1) Accurately ripped
7 | (1/1) Accurately ripped
8 | (1/1) Accurately ripped
9 | (1/1) Accurately ripped
10 | (1/1) Accurately ripped
==== Log checksum 21431D817D31DE889F4AC635BAAE1BAC9977CED9953BA9EC79629F3C7648306B ====
 
Содержание индексной карты (.CUE)
REM GENRE Jazz
REM DATE 2001
REM DISCID 6F0E300A
REM COMMENT "ExactAudioCopy v1.0b3"
PERFORMER "Glenn Ferris Trio"
TITLE "Chrominance"
FILE "01 - A Quote from Clifford Brown.wav" WAVE
TRACK 01 AUDIO
TITLE "A Quote from Clifford Brown"
PERFORMER "Glenn Ferris Trio"
PREGAP 00:00:32
INDEX 01 00:00:00
TRACK 02 AUDIO
TITLE "Boy Boy"
PERFORMER "Glenn Ferris Trio"
INDEX 00 04:05:68
FILE "02 - Boy Boy.wav" WAVE
INDEX 01 00:00:00
TRACK 03 AUDIO
TITLE "Holy"
PERFORMER "Glenn Ferris Trio"
INDEX 00 06:14:47
FILE "03 - Holy.wav" WAVE
INDEX 01 00:00:00
TRACK 04 AUDIO
TITLE "Light 'n Up"
PERFORMER "Glenn Ferris Trio"
INDEX 00 06:07:13
FILE "04 - Light 'n Up.wav" WAVE
INDEX 01 00:00:00
TRACK 05 AUDIO
TITLE "I've Got You Under My Skin"
PERFORMER "Glenn Ferris Trio"
INDEX 00 06:13:58
FILE "05 - I've Got You Under My Skin.wav" WAVE
INDEX 01 00:00:00
TRACK 06 AUDIO
TITLE "Happy Daze"
PERFORMER "Glenn Ferris Trio"
INDEX 00 02:04:70
FILE "06 - Happy Daze.wav" WAVE
INDEX 01 00:00:00
TRACK 07 AUDIO
TITLE "In My Dream"
PERFORMER "Glenn Ferris Trio"
INDEX 00 10:12:70
FILE "07 - In My Dream.wav" WAVE
INDEX 01 00:00:00
TRACK 08 AUDIO
TITLE "The Inner Life"
PERFORMER "Glenn Ferris Trio"
INDEX 00 05:19:50
FILE "08 - The Inner Life.wav" WAVE
INDEX 01 00:00:00
TRACK 09 AUDIO
TITLE "When the Night Turns Into Day"
PERFORMER "Glenn Ferris Trio"
INDEX 00 06:36:23
FILE "09 - When the Night Turns Into Day.wav" WAVE
INDEX 01 00:00:00
TRACK 10 AUDIO
TITLE "Like a Fairytale of Magic"
PERFORMER "Glenn Ferris Trio"
INDEX 00 06:59:02
FILE "10 - Like a Fairytale of Magic.wav" WAVE
INDEX 01 00:00:00
Any questions -> support@pro-jazz.com. По всем вопросам пишите -> support@pro-jazz.com
16:21
212
Нет комментариев. Ваш будет первым!