Вы используете незарегистрированную версию компонента "Вкладки"!

Поиск

(Avant-Garde, Ethnic, Yodel, Soundtrack) VA (Erika Stucky, Stimmhorn, Noldi Alder, Huun Huur Tu a. o.) - Heimatklaenge (Echoes of Home) - 2007, FLAC (tracks+.cue), lossless

(Avant-Garde, Ethnic, Yodel, Soundtrack) VA (Erika Stucky, Stimmhorn, Noldi Alder, Huun Huur Tu a. o.) - Heimatklaenge (Echoes of Home) - 2007, FLAC (tracks+.cue), lossless
Треклист:
VA (Erika Stucky, Stimmhorn, Noldi Alder, Huun Huur Tu a. o.) / Heimatklänge (Echoes of Home)
Жанр: Avant-Garde, Ethnic, Yodel, Soundtrack
Страна-производитель диска: Germany
Год издания: 2007
Издатель (лейбл): Traumton Records
Номер по каталогу: 4510
Аудиокодек: FLAC (*.flac)
Тип рипа: tracks+.cue
Битрейт аудио: lossless
Продолжительность: 56:21
Источник (релизер): Max Monteiro
Наличие сканов в содержимом раздачи: нет
Треклист:
01. Intro Juchzer (Improvisation) 0:37
02. So So Zäuerli (Noldi Alder) 2:13
03. Mineur (Balthasar Streiff und Christian Zehnder) 3:29
04. Cry-Baby (Erika Stucky) 2:02
05. Mermaid (R. Newman) 3:38
06. Stammtisch Zäuerli (traditionell) 2:47
07. Boozuland (Stucky & Sina) 2:31
08. Chlause Zäuerli (traditionell) 3:07
09. Mogelsberg Äs (Improvisation) (Erika Stucky, Noldi Alder, Christian Zehnder) 0:47
10. Triahotala (Balthasar Streiff und Christian Zehnder) 5:09
11. Der Holderbaum (Noldi Alder) 2:28
12. Mogelsberg Zwä (Improvisation) (Erika Stucky, Noldi Alder, Christian Zehnder) 1:29
13. Hochdrittler (Improvisation) (Erika Stucky, Noldi Alder, Christian Zehnder) 1:29
14. Seelu Feeä (Stucky & Sina, Knut Jensen, Jon Sass) 2:37
15. Prayer Ancestors (Huun Huur Tu) 2:03
16. Song of the Caravan Drivers (Huun Huur Tu) 3:01
17. Bautz (Balthasar Streiff und Christian Zehnder) 3:23
18. Der Amtmann (Noldi Alder und Paul Giger) 3:50
19. Mogelsberg Drü (Improvisation) (Erika Stucky, Noldi Alder, Christian Zehnder) 1:38
20. Academis (Stucky & Sina) 2:11
21. Pilgerfahrt (Balthasar Streiff und Christian Zehnder) 4:16
22. Abspannmusik (Knut Jensen) 1:35
 
Лог создания рипа
Exact Audio Copy V1.0 beta 3 from 29. August 2011
EAC extraction logfile from 19. July 2013, 15:12
VA / Heimatklänge
Used drive : SlimtypeeNAU508 5 Adapter: 1 ID: 0
Read mode : Secure
Utilize accurate stream : Yes
Defeat audio cache : Yes
Make use of C2 pointers : No
Read offset correction : 6
Overread into Lead-In and Lead-Out : No
Fill up missing offset samples with silence : Yes
Delete leading and trailing silent blocks : No
Null samples used in CRC calculations : Yes
Used interface : Native Win32 interface for Win NT & 2000
Gap handling : Appended to previous track
Used output format : User Defined Encoder
Selected bitrate : 768 kBit/s
Quality : High
Add ID3 tag : No
Command line compressor : C:\Program Files (x86)\Exact Audio Copy\Flac\flac.exe
Additional command line options : -8 -V -T "ARTIST=%artist%" -T "TITLE=%title%" -T "ALBUM=%albumtitle%" -T "DATE=%year%" -T "TRACKNUMBER=%tracknr%" -T "GENRE=%genre%" -T "PERFORMER=%albuminterpret%" -T "COMPOSER=%composer%" %haslyrics%--tag-from-file=LYRICS="%lyricsfile%"%haslyrics% -T "ALBUMARTIST=%albumartist%" -T "DISCNUMBER=%cdnumber%" -T "TOTALDISCS=%totalcds%" -T "TOTALTRACKS=%numtracks%" -T "COMMENT=%comment%" %source% -o %dest%
TOC of the extracted CD
Track | Start | Length | Start sector | End sector
---------------------------------------------------------
1 | 0:00.00 | 0:37.18 | 0 | 2792
2 | 0:37.18 | 2:13.10 | 2793 | 12777
3 | 2:50.28 | 3:28.52 | 12778 | 28429
4 | 6:19.05 | 2:02.21 | 28430 | 37600
5 | 8:21.26 | 3:37.57 | 37601 | 53932
6 | 11:59.08 | 2:46.65 | 53933 | 66447
7 | 14:45.73 | 2:31.27 | 66448 | 77799
8 | 17:17.25 | 3:07.24 | 77800 | 91848
9 | 20:24.49 | 0:47.13 | 91849 | 95386
10 | 21:11.62 | 5:09.31 | 95387 | 118592
11 | 26:21.18 | 2:28.33 | 118593 | 129725
12 | 28:49.51 | 1:28.65 | 129726 | 136390
13 | 30:18.41 | 1:28.62 | 136391 | 143052
14 | 31:47.28 | 2:37.32 | 143053 | 154859
15 | 34:24.60 | 2:02.52 | 154860 | 164061
16 | 36:27.37 | 3:01.30 | 164062 | 177666
17 | 39:28.67 | 3:22.72 | 177667 | 192888
18 | 42:51.64 | 3:50.18 | 192889 | 210156
19 | 46:42.07 | 1:37.43 | 210157 | 217474
20 | 48:19.50 | 2:10.44 | 217475 | 227268
21 | 50:30.19 | 4:15.51 | 227269 | 246444
22 | 54:45.70 | 1:35.34 | 246445 | 253603
Track 1
Filename C:\EAC rips\01 - Intro Juchzer (Improvisation).wav
Pre-gap length 0:00:02.00
Peak level 89.7 %
Extraction speed 1.1 X
Track quality 100.0 %
Test CRC 1E73C03F
Copy CRC 1E73C03F
Accurately ripped (confidence 2) [27635025] (AR v2)
Copy OK
Track 2
Filename C:\EAC rips\02 - So So Zäuerli.wav
Peak level 95.5 %
Extraction speed 1.4 X
Track quality 99.9 %
Test CRC 40B44ED9
Copy CRC 40B44ED9
Accurately ripped (confidence 2) [B8E57F6A] (AR v2)
Copy OK
Track 3
Filename C:\EAC rips\03 - Mineur.wav
Peak level 99.5 %
Extraction speed 2.2 X
Track quality 100.0 %
Test CRC 72EA423A
Copy CRC 72EA423A
Accurately ripped (confidence 2) [8651E609] (AR v2)
Copy OK
Track 4
Filename C:\EAC rips\04 - Cry-Baby.wav
Peak level 90.5 %
Extraction speed 2.1 X
Track quality 100.0 %
Test CRC 29576F2B
Copy CRC 29576F2B
Accurately ripped (confidence 2) [05D6486A] (AR v2)
Copy OK
Track 5
Filename C:\EAC rips\05 - Mermaid.wav
Peak level 88.8 %
Extraction speed 2.1 X
Track quality 99.9 %
Test CRC 5BD23355
Copy CRC 5BD23355
Accurately ripped (confidence 2) [FEA3326C] (AR v2)
Copy OK
Track 6
Filename C:\EAC rips\06 - Stammtisch Zäuerli.wav
Peak level 89.1 %
Extraction speed 2.5 X
Track quality 100.0 %
Test CRC 4001ED75
Copy CRC 4001ED75
Accurately ripped (confidence 2) [D053D423] (AR v2)
Copy OK
Track 7
Filename C:\EAC rips\07 - Boozuland.wav
Peak level 96.6 %
Extraction speed 2.0 X
Track quality 99.9 %
Test CRC 585EC623
Copy CRC 585EC623
Accurately ripped (confidence 2) [3DC2CDC7] (AR v2)
Copy OK
Track 8
Filename C:\EAC rips\08 - Chlause Zäuerli.wav
Peak level 90.7 %
Extraction speed 2.8 X
Track quality 100.0 %
Test CRC EC9D54B6
Copy CRC EC9D54B6
Accurately ripped (confidence 2) [EF20EA02] (AR v2)
Copy OK
Track 9
Filename C:\EAC rips\09 - Mogelsberg Äs (Improvisation).wav
Peak level 91.6 %
Extraction speed 1.9 X
Track quality 100.0 %
Test CRC 08D8C79D
Copy CRC 08D8C79D
Accurately ripped (confidence 2) [7AC3805C] (AR v2)
Copy OK
Track 10
Filename C:\EAC rips\10 - Triahotala.wav
Peak level 99.5 %
Extraction speed 2.8 X
Track quality 99.9 %
Test CRC D4B79185
Copy CRC D4B79185
Accurately ripped (confidence 2) [6DE1D04F] (AR v2)
Copy OK
Track 11
Filename C:\EAC rips\11 - Der Holderbaum.wav
Peak level 86.1 %
Extraction speed 3.1 X
Track quality 100.0 %
Test CRC 388F658E
Copy CRC 388F658E
Accurately ripped (confidence 2) [3F032547] (AR v2)
Copy OK
Track 12
Filename C:\EAC rips\12 - Mogelsberg Zwä (Improvisation).wav
Peak level 98.6 %
Extraction speed 2.7 X
Track quality 100.0 %
Test CRC 57458633
Copy CRC 57458633
Accurately ripped (confidence 2) [87DDDC7E] (AR v2)
Copy OK
Track 13
Filename C:\EAC rips\13 - Hochdrittler (Improvisation).wav
Peak level 93.0 %
Extraction speed 2.8 X
Track quality 100.0 %
Test CRC 233011A2
Copy CRC 233011A2
Accurately ripped (confidence 2) [92975C66] (AR v2)
Copy OK
Track 14
Filename C:\EAC rips\14 - Seelu Feeä.wav
Peak level 81.7 %
Extraction speed 3.3 X
Track quality 100.0 %
Test CRC 79CB5D80
Copy CRC 79CB5D80
Accurately ripped (confidence 2) [614EDCA6] (AR v2)
Copy OK
Track 15
Filename C:\EAC rips\15 - Prayer Ancestors.wav
Peak level 99.4 %
Extraction speed 3.2 X
Track quality 100.0 %
Test CRC D7CEDEFB
Copy CRC D7CEDEFB
Accurately ripped (confidence 2) [E640F58F] (AR v2)
Copy OK
Track 16
Filename C:\EAC rips\16 - Song of the Caravan Drivers.wav
Peak level 77.5 %
Extraction speed 3.5 X
Track quality 100.0 %
Test CRC 50E7C051
Copy CRC 50E7C051
Accurately ripped (confidence 2) [2D511885] (AR v2)
Copy OK
Track 17
Filename C:\EAC rips\17 - Bautz.wav
Peak level 96.8 %
Extraction speed 3.7 X
Track quality 100.0 %
Test CRC 6320914D
Copy CRC 6320914D
Accurately ripped (confidence 2) [8C190CEC] (AR v2)
Copy OK
Track 18
Filename C:\EAC rips\18 - Der Amtmann.wav
Peak level 97.9 %
Extraction speed 3.7 X
Track quality 100.0 %
Test CRC C214E43C
Copy CRC C214E43C
Accurately ripped (confidence 2) [EA4C12D1] (AR v2)
Copy OK
Track 19
Filename C:\EAC rips\19 - Mogelsberg Drü (Improvisation).wav
Peak level 98.3 %
Extraction speed 2.2 X
Track quality 99.8 %
Test CRC F66DE3D8
Copy CRC F66DE3D8
Accurately ripped (confidence 2) [4A5F9A08] (AR v2)
Copy OK
Track 20
Filename C:\EAC rips\20 - Academis.wav
Peak level 97.5 %
Extraction speed 3.6 X
Track quality 100.0 %
Test CRC 67EB3612
Copy CRC 67EB3612
Accurately ripped (confidence 2) [5A575E47] (AR v2)
Copy OK
Track 21
Filename C:\EAC rips\21 - Pilgerfahrt.wav
Peak level 98.1 %
Extraction speed 4.2 X
Track quality 100.0 %
Test CRC 92232DC8
Copy CRC 92232DC8
Accurately ripped (confidence 2) [B27920B8] (AR v2)
Copy OK
Track 22
Filename C:\EAC rips\22 - Abspannmusik.wav
Peak level 95.7 %
Extraction speed 3.4 X
Track quality 100.0 %
Test CRC 8D073540
Copy CRC 8D073540
Accurately ripped (confidence 2) [F213D40F] (AR v2)
Copy OK
All tracks accurately ripped
No errors occurred
End of status report
---- CUETools DB Plugin V2.1.4
[CTDB TOCID: WMtcan1wa1BHbJBL7ZBg2SOy6xU-] found
Submit result: WMtcan1wa1BHbJBL7ZBg2SOy6xU- has been confirmed
Track | CTDB Status
1 | (1/1) Accurately ripped
2 | (1/1) Accurately ripped
3 | (1/1) Accurately ripped
4 | (1/1) Accurately ripped
5 | (1/1) Accurately ripped
6 | (1/1) Accurately ripped
7 | (1/1) Accurately ripped
8 | (1/1) Accurately ripped
9 | (1/1) Accurately ripped
10 | (1/1) Accurately ripped
11 | (1/1) Accurately ripped
12 | (1/1) Accurately ripped
13 | (1/1) Accurately ripped
14 | (1/1) Accurately ripped
15 | (1/1) Accurately ripped
16 | (1/1) Accurately ripped
17 | (1/1) Accurately ripped
18 | (1/1) Accurately ripped
19 | (1/1) Accurately ripped
20 | (1/1) Accurately ripped
21 | (1/1) Accurately ripped
22 | (1/1) Accurately ripped
==== Log checksum 6D1C419D32A266B7C06B4385619C8F46A8FF3F10747AA568B8220DA835F4BF48 ====
 
Содержание индексной карты (.CUE)
REM GENRE Soundtrack
REM DATE 2007
REM DISCID 230D3516
REM COMMENT "ExactAudioCopy v1.0b3"
CATALOG 0705304451021
PERFORMER "VA"
TITLE "Heimatklänge"
FILE "01 - Intro Juchzer (Improvisation).wav" WAVE
TRACK 01 AUDIO
TITLE "Intro Juchzer (Improvisation)"
PERFORMER "Christian Zehnder"
ISRC DEE130709301
INDEX 01 00:00:00
FILE "02 - So So Zäuerli.wav" WAVE
TRACK 02 AUDIO
TITLE "So So Zäuerli"
PERFORMER "Noldi Alder, Paul Giger, Romanò Nicola, Töbi Tobler, André Ott "
ISRC DEE130709302
INDEX 01 00:00:00
FILE "03 - Mineur.wav" WAVE
TRACK 03 AUDIO
TITLE "Mineur"
PERFORMER "Stimmhorn"
ISRC DEE130709303
INDEX 01 00:00:00
FILE "04 - Cry-Baby.wav" WAVE
TRACK 04 AUDIO
TITLE "Cry-Baby"
PERFORMER "Erika Stucky"
ISRC DEE130709304
INDEX 01 00:00:00
FILE "05 - Mermaid.wav" WAVE
TRACK 05 AUDIO
TITLE "Mermaid"
PERFORMER "Erika Stucky"
ISRC DEE130709305
INDEX 01 00:00:00
FILE "06 - Stammtisch Zäuerli.wav" WAVE
TRACK 06 AUDIO
TITLE "Stammtisch Zäuerli"
PERFORMER "Noldi Alder und Gebrüder Frick"
ISRC DEE130709306
INDEX 01 00:00:00
FILE "07 - Boozuland.wav" WAVE
TRACK 07 AUDIO
TITLE "Boozuland"
PERFORMER "Stucky & Sina"
ISRC DEE130709307
INDEX 01 00:00:00
FILE "08 - Chlause Zäuerli.wav" WAVE
TRACK 08 AUDIO
TITLE "Chlause Zäuerli"
PERFORMER "Noldi Alder und Freunde"
ISRC DEE130709308
INDEX 01 00:00:00
FILE "09 - Mogelsberg Äs (Improvisation).wav" WAVE
TRACK 09 AUDIO
TITLE "Mogelsberg Äs (Improvisation)"
PERFORMER "Erika Stucky, Noldi Alder, Christian Zehnder"
ISRC DEE130709309
INDEX 01 00:00:00
FILE "10 - Triahotala.wav" WAVE
TRACK 10 AUDIO
TITLE "Triahotala"
PERFORMER "Stimmhorn"
ISRC DEE130709310
INDEX 01 00:00:00
FILE "11 - Der Holderbaum.wav" WAVE
TRACK 11 AUDIO
TITLE "Der Holderbaum"
PERFORMER "Noldi Alder"
ISRC DEE130709311
INDEX 01 00:00:00
FILE "12 - Mogelsberg Zwä (Improvisation).wav" WAVE
TRACK 12 AUDIO
TITLE "Mogelsberg Zwä (Improvisation)"
PERFORMER "Erika Stucky, Noldi Alder, Christian Zehnder"
ISRC DEE130709312
INDEX 01 00:00:00
FILE "13 - Hochdrittler (Improvisation).wav" WAVE
TRACK 13 AUDIO
TITLE "Hochdrittler (Improvisation)"
PERFORMER "Erika Stucky, Noldi Alder, Christian Zehnder"
ISRC DEE130709313
INDEX 01 00:00:00
FILE "14 - Seelu Feeä.wav" WAVE
TRACK 14 AUDIO
TITLE "Seelu Feeä"
PERFORMER "Stucky & Sina"
ISRC DEE130709314
INDEX 01 00:00:00
FILE "15 - Prayer Ancestors.wav" WAVE
TRACK 15 AUDIO
TITLE "Prayer Ancestors"
PERFORMER "Huun Huur Tu"
ISRC DEE130709315
INDEX 01 00:00:00
FILE "16 - Song of the Caravan Drivers.wav" WAVE
TRACK 16 AUDIO
TITLE "Song of the Caravan Drivers"
PERFORMER "Huun Huur Tu und Christian Zehnder"
ISRC DEE130709316
INDEX 01 00:00:00
FILE "17 - Bautz.wav" WAVE
TRACK 17 AUDIO
TITLE "Bautz"
PERFORMER "Stimmhorn"
ISRC DEE130709317
INDEX 01 00:00:00
FILE "18 - Der Amtmann.wav" WAVE
TRACK 18 AUDIO
TITLE "Der Amtmann"
PERFORMER "Noldi Alder und Paul Giger"
ISRC DEE130709318
INDEX 01 00:00:00
FILE "19 - Mogelsberg Drü (Improvisation).wav" WAVE
TRACK 19 AUDIO
TITLE "Mogelsberg Drü (Improvisation)"
PERFORMER "Erika Stucky, Noldi Alder, Christian Zehnder"
ISRC DEE130709319
INDEX 01 00:00:00
FILE "20 - Academis.wav" WAVE
TRACK 20 AUDIO
TITLE "Academis"
PERFORMER "Stucky & Sina"
ISRC DEE130709320
INDEX 01 00:00:00
FILE "21 - Pilgerfahrt.wav" WAVE
TRACK 21 AUDIO
TITLE "Pilgerfahrt"
PERFORMER "Stimmhorn"
ISRC DEE130709321
INDEX 01 00:00:00
FILE "22 - Abspannmusik.wav" WAVE
TRACK 22 AUDIO
TITLE "Abspannmusik"
PERFORMER "Knut Jensen"
ISRC DEE130709322
INDEX 01 00:00:00
Доп. информация: Soundtrack of the Stefan Schwietert's movie "Heimatklänge".
 
Состав
1. Intro Juchzer (Improvisation)
Christian Zehnder
2. So So Zäuerli
Noldi Alder, Paul Giger, Romanò Nicola, Töbi Tobler, André Ott
3. Mineur
Stimmhorn
4. Cry-Baby
Erika Stucky
5. Mermaid
Erika Stucky
6. Stammtisch Zäuerli
Noldi Alder und Gebrüder Frick
7. Boozuland
Stucky & Sina
8. Chlause Zäuerli
Noldi Alder und Freunde
9. Mogelsberg Äs (Improvisation)
Erika Stucky, Noldi Alder, Christian Zehnder
10. Triahotala
Stimmhorn
11. Der Holderbaum
Noldi Alder
12. Mogelsberg Zwä (Improvisation)
Erika Stucky, Noldi Alder, Christian Zehnder
13. Hochdrittler (Improvisation)
Erika Stucky, Noldi Alder, Christian Zehnder
14. Seelu Feeä
Stucky & Sina
15. Prayer Ancestors
Huun Huur Tu
16. Song of the Caravan Drivers
Huun Huur Tu und Christian Zehnder
17. Bautz
Stimmhorn
18. Der Amtmann
Noldi Alder und Paul Giger
19. Mogelsberg Drü (Improvisation)
Erika Stucky, Noldi Alder, Christian Zehnder
20. Academis
Stucky & Sina
21. Pilgerfahrt
Stimmhorn
22. Abspannmusik
Knut Jensen
Any questions -> support@pro-jazz.com. По всем вопросам пишите -> support@pro-jazz.com
16:21
186
Нет комментариев. Ваш будет первым!