Вы используете незарегистрированную версию компонента "Вкладки"!

Поиск

(Free Jazz, Fusion, Avant-Garde Jazz) Tisziji Munoz - Alpha-Nebula: The Prophecies - 1999, FLAC (tracks+.cue), lossless

(Free Jazz, Fusion, Avant-Garde Jazz) Tisziji Munoz - Alpha-Nebula: The Prophecies - 1999, FLAC (tracks+.cue), lossless
Треклист:
Tisziji Munoz / Alpha-Nebula: The Prophecies
Жанр: Free Jazz, Fusion, Avant-Garde Jazz
Страна-производитель диска: US
Год издания: 1999
Издатель (лейбл): Anami Music
Номер по каталогу: AM0013
Страна: US
Аудиокодек: FLAC (*.flac)
Тип рипа: tracks+.cue
Битрейт аудио: lossless
Продолжительность: 58:10
Источник (релизер): свой фирменный диск
Наличие сканов в содержимом раздачи:
Треклист:
1. Star-Birth (Creative Fire) 1:06
2. Good-bye Dear Sweet Mother (Earth) 6:25
3. Psychic Galaxies – Infinite Time Dimensions of Space 1:55
4. Vanishing the God of Wormholes 2:23
5. Heavenly Rest (In the Embrace of Spirit) 1:09
6. Simultaneous Transmigrations – The Key of Quinkaya-loka 4:05
7. Memory Dissolving Self-Death – Disengaging the Causal Body 1:40
8. Angelic Origination – Acceptance of Divine Mission – Being Alone as the Heart 10:04
9. The Tunnel of No-Consciousness – The Paradise of Paradox 2:08
10. Wielding the Rod of Truth – Being Vajra-dara, the Holder of Indestructibility 3:01
11. Companions in Divine Spirit 2:21
12. Fearlessness – Speed of Light – Sound of Fire – Hear no Evil, Fear no Virtue 3:21
13. Surpassing Kal Niranjan – The time-space, two-faced lord of the universe 0:31
14. Mastering the Seed of Creation – Co-creating the universes with Spirit 6:28
15. Intergalaxial Human Feeling 0:39
16. Creatitude – Generating Divine Grace 2:43
17. Cosmic Ovulation – Preparation for Being Infinity 1:24
18. Divine Madness – Total Spontaneity, Free Happiness, Bodilessness, the Emptiness of Spirit 2:17
19 Joyous Peace – Presence of the Heart: Majestic Compassion 3:44
 
Лог создания рипа
Exact Audio Copy V1.0 beta 3 from 29. August 2011
EAC extraction logfile from 2. November 2013, 14:57
Tisziji Munoz / Alpha-Nebula: The Prophecies
Used drive : PIONEER DVD-RW DVR-115D Adapter: 0 ID: 0
Read mode : Secure
Utilize accurate stream : Yes
Defeat audio cache : Yes
Make use of C2 pointers : No
Read offset correction : 48
Overread into Lead-In and Lead-Out : No
Fill up missing offset samples with silence : Yes
Delete leading and trailing silent blocks : No
Null samples used in CRC calculations : Yes
Used interface : Installed external ASPI interface
Gap handling : Appended to previous track
Used output format : User Defined Encoder
Selected bitrate : 896 kBit/s
Quality : High
Add ID3 tag : No
Command line compressor : C:\Program Files\Exact Audio Copy\FLAC\FLAC.EXE
Additional command line options : -6 -V -T "ARTIST=%artist%" -T "TITLE=%title%" -T "ALBUM=%albumtitle%" -T "DATE=%year%" -T "TRACKNUMBER=%tracknr%" -T "GENRE=%genre%" -T "COMMENT=%comment%" -T "BAND=%albuminterpret%" -T "COMPOSER=%composer%" %haslyrics%--tag-from-file=LYRICS="%lyricsfile%"%haslyrics% -T "DISCNUMBER=%cdnumber%" -T "TOTALDISCS=%totalcds%" -T "TOTALTRACKS=%numtracks%" %hascover%--picture="%coverfile%"%hascover% %source% -o %dest%
TOC of the extracted CD
Track | Start | Length | Start sector | End sector
---------------------------------------------------------
1 | 0:00.00 | 1:08.40 | 0 | 5139
2 | 1:08.40 | 6:27.19 | 5140 | 34183
3 | 7:35.59 | 1:57.24 | 34184 | 42982
4 | 9:33.08 | 2:25.47 | 42983 | 53904
5 | 11:58.55 | 1:11.73 | 53905 | 59302
6 | 13:10.53 | 4:07.24 | 59303 | 77851
7 | 17:18.02 | 1:42.68 | 77852 | 85569
8 | 19:00.70 | 10:06.26 | 85570 | 131045
9 | 29:07.21 | 2:10.41 | 131046 | 140836
10 | 31:17.62 | 3:03.64 | 140837 | 154625
11 | 34:21.51 | 2:24.10 | 154626 | 165435
12 | 36:45.61 | 3:23.15 | 165436 | 180675
13 | 40:09.01 | 0:33.15 | 180676 | 183165
14 | 40:42.16 | 6:30.45 | 183166 | 212460
15 | 47:12.61 | 0:41.45 | 212461 | 215580
16 | 47:54.31 | 2:45.50 | 215581 | 228005
17 | 50:40.06 | 1:26.74 | 228006 | 234529
18 | 52:07.05 | 2:19.50 | 234530 | 245004
19 | 54:26.55 | 3:44.01 | 245005 | 261805
Track 1
Filename D:\zzz\01 - Star-Birth (Creative Fire).wav
Pre-gap length 0:00:02.00
Peak level 88.4 %
Extraction speed 3.0 X
Track quality 100.0 %
Test CRC D0A4CF8D
Copy CRC D0A4CF8D
Accurately ripped (confidence 1) [41941DA3] (AR v1)
Copy OK
Track 2
Filename D:\zzz\02 - Good-Bye Dear Sweet Mother.wav
Pre-gap length 0:00:02.18
Peak level 85.8 %
Extraction speed 4.8 X
Track quality 100.0 %
Test CRC A332C5C8
Copy CRC A332C5C8
Accurately ripped (confidence 1) [79AD56B5] (AR v1)
Copy OK
Track 3
Filename D:\zzz\03 - Psychic Galaxies – Infinite Time Dimensions of Space.wav
Pre-gap length 0:00:02.16
Peak level 87.8 %
Extraction speed 4.4 X
Track quality 100.0 %
Test CRC 89FC3458
Copy CRC 89FC3458
Accurately ripped (confidence 1) [0B4B44B1] (AR v1)
Copy OK
Track 4
Filename D:\zzz\04 - Vanishing The God Of Wormholes.wav
Pre-gap length 0:00:02.05
Peak level 89.3 %
Extraction speed 4.8 X
Track quality 100.0 %
Test CRC 5B8875CD
Copy CRC 5B8875CD
Accurately ripped (confidence 1) [67A6F26C] (AR v1)
Copy OK
Track 5
Filename D:\zzz\05 - Heavenly Rest (In The Embrace Of Spirit).wav
Pre-gap length 0:00:02.25
Peak level 70.4 %
Extraction speed 4.1 X
Track quality 100.0 %
Test CRC C6AC17D0
Copy CRC C6AC17D0
Accurately ripped (confidence 1) [68722E2F] (AR v1)
Copy OK
Track 6
Filename D:\zzz\06 - Simultaneous Transmigrations – The Key Of Quinkaya-Loka.wav
Pre-gap length 0:00:02.14
Peak level 99.9 %
Extraction speed 5.0 X
Track quality 99.9 %
Test CRC 8BAF4F44
Copy CRC 8BAF4F44
Accurately ripped (confidence 1) [200321FA] (AR v1)
Copy OK
Track 7
Filename D:\zzz\07 - Memory Dissolving Self-Death – Disengaging The Causal Body.wav
Pre-gap length 0:00:02.02
Peak level 90.8 %
Extraction speed 3.9 X
Track quality 99.8 %
Test CRC FA4F484B
Copy CRC FA4F484B
Accurately ripped (confidence 1) [5DCFEA3B] (AR v1)
Copy OK
Track 8
Filename D:\zzz\08 - Angelic Origination – Acceptance of Divine Mission – Being Alone As The Heart.wav
Pre-gap length 0:00:02.19
Peak level 84.1 %
Extraction speed 6.8 X
Track quality 100.0 %
Test CRC 4A463A49
Copy CRC 4A463A49
Accurately ripped (confidence 1) [9BC0F4C9] (AR v1)
Copy OK
Track 9
Filename D:\zzz\09 - The Tunnel Of No-Consciousness – The Paradise Of Paradox.wav
Pre-gap length 0:00:02.06
Peak level 91.8 %
Extraction speed 5.9 X
Track quality 100.0 %
Test CRC FF3BE0B0
Copy CRC FF3BE0B0
Accurately ripped (confidence 1) [2D2CD22E] (AR v1)
Copy OK
Track 10
Filename D:\zzz\10 - Wielding The Rod Of Truth – Being Vajra-Dara, The Holder Of Indestructibility.wav
Pre-gap length 0:00:02.17
Peak level 89.9 %
Extraction speed 6.5 X
Track quality 100.0 %
Test CRC 6CEB95D4
Copy CRC 6CEB95D4
Accurately ripped (confidence 1) [EEBDCB54] (AR v1)
Copy OK
Track 11
Filename D:\zzz\11 - Companions In Divine Spirit.wav
Pre-gap length 0:00:02.14
Peak level 63.7 %
Extraction speed 6.4 X
Track quality 100.0 %
Test CRC 5E76406F
Copy CRC 5E76406F
Accurately ripped (confidence 1) [964917A5] (AR v1)
Copy OK
Track 12
Filename D:\zzz\12 - Fearlessness – Speed Of Light – Sound Of Fire – Hear No Evil, Fear No Virtue.wav
Pre-gap length 0:00:02.16
Peak level 96.9 %
Extraction speed 6.0 X
Track quality 99.9 %
Test CRC FC96C374
Copy CRC FC96C374
Accurately ripped (confidence 1) [97969445] (AR v1)
Copy OK
Track 13
Filename D:\zzz\13 - Surpassing Kal Niranjan – The Time-Space, Two-Faced Lord Of The Universe.wav
Pre-gap length 0:00:02.01
Peak level 93.1 %
Extraction speed 2.6 X
Track quality 99.6 %
Test CRC C5974BD8
Copy CRC C5974BD8
Accurately ripped (confidence 1) [D68F8483] (AR v1)
Copy OK
Track 14
Filename D:\zzz\14 - Mastering The Seed Of Creation – Co-Creating The Universes With Spirit.wav
Pre-gap length 0:00:02.05
Peak level 90.5 %
Extraction speed 7.8 X
Track quality 100.0 %
Test CRC 252E65C3
Copy CRC 252E65C3
Accurately ripped (confidence 1) [208FDB1E] (AR v1)
Copy OK
Track 15
Filename D:\zzz\15 - Intergalaxial Human Feeling.wav
Pre-gap length 0:00:02.16
Peak level 71.0 %
Extraction speed 4.6 X
Track quality 100.0 %
Test CRC AEC1B863
Copy CRC AEC1B863
Accurately ripped (confidence 1) [888A956E] (AR v1)
Copy OK
Track 16
Filename D:\zzz\16 - Creatitude – Generating Divine Grace.wav
Pre-gap length 0:00:02.07
Peak level 81.2 %
Extraction speed 6.2 X
Track quality 99.9 %
Test CRC CCE4A23D
Copy CRC CCE4A23D
Accurately ripped (confidence 1) [BFAC112C] (AR v1)
Copy OK
Track 17
Filename D:\zzz\17 - Cosmic Ovulation – Preparation For Being Infinity.wav
Pre-gap length 0:00:02.03
Peak level 87.2 %
Extraction speed 4.9 X
Track quality 99.8 %
Test CRC D05E1549
Copy CRC D05E1549
Accurately ripped (confidence 1) [33C0483B] (AR v1)
Copy OK
Track 18
Filename D:\zzz\18 - Divine Madness – Total Spontaneity, Free Happiness, Bodilessness, The Emptiness Of Spirit.wav
Pre-gap length 0:00:02.02
Peak level 90.5 %
Extraction speed 7.3 X
Track quality 100.0 %
Test CRC 100D03FA
Copy CRC 100D03FA
Accurately ripped (confidence 1) [CFF52A8D] (AR v1)
Copy OK
Track 19
Filename D:\zzz\19 - Joyous Peace – Presence Of The Heart- Majestic Compassion.wav
Pre-gap length 0:00:02.14
Peak level 89.5 %
Extraction speed 8.0 X
Track quality 100.0 %
Test CRC 3BE49ECC
Copy CRC 3BE49ECC
Accurately ripped (confidence 1) [387FFBB8] (AR v1)
Copy OK
All tracks accurately ripped
No errors occurred
End of status report
==== Log checksum 0840A73F9FD02E18403561D8EA3C25E9B32FB19E34CA784EF7E52B6D1081AF70 ====
 
Содержание индексной карты (.CUE)
REM GENRE "Avant-Garde Jazz"
REM DATE 1999
REM DISCID 000DA213
REM COMMENT "ExactAudioCopy v1.0b3"
PERFORMER "Tisziji Munoz"
TITLE "Alpha-Nebula: The Prophecies"
FILE "01 - Star-Birth (Creative Fire).wav" WAVE
TRACK 01 AUDIO
TITLE "Star-Birth (Creative Fire)"
PERFORMER "Tisziji Munoz"
INDEX 01 00:00:00
TRACK 02 AUDIO
TITLE "Good-Bye Dear Sweet Mother"
PERFORMER "Tisziji Munoz"
INDEX 00 01:06:22
FILE "02 - Good-Bye Dear Sweet Mother.wav" WAVE
INDEX 01 00:00:00
TRACK 03 AUDIO
TITLE "Psychic Galaxies – Infinite Time Dimensions of Space"
PERFORMER "Tisziji Munoz"
INDEX 00 06:25:03
FILE "03 - Psychic Galaxies – Infinite Time Dimensions of Space.wav" WAVE
INDEX 01 00:00:00
TRACK 04 AUDIO
TITLE "Vanishing The God Of Wormholes"
PERFORMER "Tisziji Munoz"
INDEX 00 01:55:19
FILE "04 - Vanishing The God Of Wormholes.wav" WAVE
INDEX 01 00:00:00
TRACK 05 AUDIO
TITLE "Heavenly Rest (In The Embrace Of Spirit)"
PERFORMER "Tisziji Munoz"
INDEX 00 02:23:22
FILE "05 - Heavenly Rest (In The Embrace Of Spirit).wav" WAVE
INDEX 01 00:00:00
TRACK 06 AUDIO
TITLE "Simultaneous Transmigrations – The Key Of Quinkaya-Loka"
PERFORMER "Tisziji Munoz"
INDEX 00 01:09:59
FILE "06 - Simultaneous Transmigrations – The Key Of Quinkaya-Loka.wav" WAVE
INDEX 01 00:00:00
TRACK 07 AUDIO
TITLE "Memory Dissolving Self-Death – Disengaging The Causal Body"
PERFORMER "Tisziji Munoz"
INDEX 00 04:05:22
FILE "07 - Memory Dissolving Self-Death – Disengaging The Causal Body.wav" WAVE
INDEX 01 00:00:00
TRACK 08 AUDIO
TITLE "Angelic Origination – Acceptance of Divine Mission – Being Alone As The Heart"
PERFORMER "Tisziji Munoz"
INDEX 00 01:40:49
FILE "08 - Angelic Origination – Acceptance of Divine Mission – Being Alone As The Heart.wav" WAVE
INDEX 01 00:00:00
TRACK 09 AUDIO
TITLE "The Tunnel Of No-Consciousness – The Paradise Of Paradox"
PERFORMER "Tisziji Munoz"
INDEX 00 10:04:20
FILE "09 - The Tunnel Of No-Consciousness – The Paradise Of Paradox.wav" WAVE
INDEX 01 00:00:00
TRACK 10 AUDIO
TITLE "Wielding The Rod Of Truth – Being Vajra-Dara, The Holder Of Indestructibility"
PERFORMER "Tisziji Munoz"
INDEX 00 02:08:24
FILE "10 - Wielding The Rod Of Truth – Being Vajra-Dara, The Holder Of Indestructibility.wav" WAVE
INDEX 01 00:00:00
TRACK 11 AUDIO
TITLE "Companions In Divine Spirit"
PERFORMER "Tisziji Munoz"
INDEX 00 03:01:50
FILE "11 - Companions In Divine Spirit.wav" WAVE
INDEX 01 00:00:00
TRACK 12 AUDIO
TITLE "Fearlessness – Speed Of Light – Sound Of Fire – Hear No Evil, Fear No Virtue"
PERFORMER "Tisziji Munoz"
INDEX 00 02:21:69
FILE "12 - Fearlessness – Speed Of Light – Sound Of Fire – Hear No Evil, Fear No Virtue.wav" WAVE
INDEX 01 00:00:00
TRACK 13 AUDIO
TITLE "Surpassing Kal Niranjan – The Time-Space, Two-Faced Lord Of The Universe"
PERFORMER "Tisziji Munoz"
INDEX 00 03:21:14
FILE "13 - Surpassing Kal Niranjan – The Time-Space, Two-Faced Lord Of The Universe.wav" WAVE
INDEX 01 00:00:00
TRACK 14 AUDIO
TITLE "Mastering The Seed Of Creation – Co-Creating The Universes With Spirit"
PERFORMER "Tisziji Munoz"
INDEX 00 00:31:10
FILE "14 - Mastering The Seed Of Creation – Co-Creating The Universes With Spirit.wav" WAVE
INDEX 01 00:00:00
TRACK 15 AUDIO
TITLE "Intergalaxial Human Feeling"
PERFORMER "Tisziji Munoz"
INDEX 00 06:28:29
FILE "15 - Intergalaxial Human Feeling.wav" WAVE
INDEX 01 00:00:00
TRACK 16 AUDIO
TITLE "Creatitude – Generating Divine Grace"
PERFORMER "Tisziji Munoz"
INDEX 00 00:39:38
FILE "16 - Creatitude – Generating Divine Grace.wav" WAVE
INDEX 01 00:00:00
TRACK 17 AUDIO
TITLE "Cosmic Ovulation – Preparation For Being Infinity"
PERFORMER "Tisziji Munoz"
INDEX 00 02:43:47
FILE "17 - Cosmic Ovulation – Preparation For Being Infinity.wav" WAVE
INDEX 01 00:00:00
TRACK 18 AUDIO
TITLE "Divine Madness – Total Spontaneity, Free Happiness, Bodilessness, The Emptine..."
PERFORMER "Tisziji Munoz"
INDEX 00 01:24:72
FILE "18 - Divine Madness – Total Spontaneity, Free Happiness, Bodilessness, The Emptiness Of Spirit.wav" WAVE
INDEX 01 00:00:00
TRACK 19 AUDIO
TITLE "Joyous Peace – Presence Of The Heart: Majestic Compassion"
PERFORMER "Tisziji Munoz"
INDEX 00 02:17:36
FILE "19 - Joyous Peace – Presence Of The Heart- Majestic Compassion.wav" WAVE
INDEX 01 00:00:00
 
Лог проверки качества
d:\>d:\aucdtect -d/-m0 d:\zzz\*.wav
auCDtect: CD records authenticity detector, version 0.8.2
Copyright (c) 2004 Oleg Berngardt. All rights reserved.
Copyright (c) 2004 Alexander Djourik. All rights reserved.
------------------------------------------------------------
Processing file: [01. Star-Birth (Creative Fire).wav]
------------------------------------------------------------
This track looks like CDDA with probability 100%
------------------------------------------------------------
Processing file: [02. Good-Bye Dear Sweet Mother.wav]
------------------------------------------------------------
This track looks like CDDA with probability 100%
------------------------------------------------------------
Processing file: [03. Psychic Galaxies - Infinite Time Dimensions of Space.wav]
------------------------------------------------------------
This track looks like CDDA with probability 100%
------------------------------------------------------------
Processing file: [04. Vanishing The God Of Wormholes.wav]
------------------------------------------------------------
This track looks like CDDA with probability 100%
------------------------------------------------------------
Processing file: [05. Heavenly Rest (In The Embrace Of Spirit).wav]
------------------------------------------------------------
This track looks like CDDA with probability 100%
------------------------------------------------------------
Processing file: [06. Simultaneous Transmigrations - The Key Of Quinkaya-Loka.wav]
------------------------------------------------------------
This track looks like CDDA with probability 99%
------------------------------------------------------------
Processing file: [07. Memory Dissolving Self-Death - Disengaging The Causal Body.wav]
------------------------------------------------------------
This track looks like CDDA with probability 100%
------------------------------------------------------------
Processing file: [08. Angelic Origination - Acceptance of Divine Mission - Being Alone As The Heart.wav]
------------------------------------------------------------
This track looks like CDDA with probability 100%
------------------------------------------------------------
Processing file: [09. The Tunnel Of No-Consciousness - The Paradise Of Paradox.wav]
------------------------------------------------------------
This track looks like CDDA with probability 99%
------------------------------------------------------------
Processing file: [10. Wielding The Rod Of Truth - Being Vajra-Dara, The Holder Of Indestructibility.wav]
------------------------------------------------------------
This track looks like CDDA with probability 100%
------------------------------------------------------------
Processing file: [11. Companions In Divine Spirit.wav]
------------------------------------------------------------
This track looks like CDDA with probability 100%
------------------------------------------------------------
Processing file: [12. Fearlessness - Speed Of Light - Sound Of Fire - Hear No Evil, Fear No Virtue.wav]
------------------------------------------------------------
This track looks like CDDA with probability 100%
------------------------------------------------------------
Processing file: [13. Surpassing Kal Niranjan - The Time-Space, Two-Faced Lord Of The Universe.wav]
------------------------------------------------------------
This track looks like CDDA with probability 100%
------------------------------------------------------------
Processing file: [14. Mastering The Seed Of Creation - Co-Creating The Universes With Spirit.wav]
------------------------------------------------------------
This track looks like CDDA with probability 100%
------------------------------------------------------------
Processing file: [15. Intergalaxial Human Feeling.wav]
------------------------------------------------------------
This track looks like CDDA with probability 99%
------------------------------------------------------------
Processing file: [16. Creatitude - Generating Divine Grace.wav]
------------------------------------------------------------
This track looks like CDDA with probability 100%
------------------------------------------------------------
Processing file: [17. Cosmic Ovulation - Preparation For Being Infinity.wav]
------------------------------------------------------------
This track looks like CDDA with probability 99%
------------------------------------------------------------
Processing file: [18. Divine Madness - Total Spontaneity, Free Happiness, Bodilessness, The Emptiness Of Spirit.wav]
------------------------------------------------------------
This track looks like CDDA with probability 100%
------------------------------------------------------------
Processing file: [19. Joyous Peace - Presence Of The Heart- Majestic Compassion.wav]
------------------------------------------------------------
This track looks like CDDA with probability 100%
------------------------------------------------------------
Final Conclusion:
------------------------------------------------------------
These tracks looks like CDDA with probability 100%
Доп. информация:
 
Album Info
All compositions, arrangements, art direction and design by Tisziji Munoz
Produced by Tisziji Munoz
Recorded on December 13, 1997 by Mark Fuller and Mike Hostettler at Sweetfish Recording Studios, Argyle, New York
Mixing, mastering and graphic layout by Mike Munoz
Assistant engineers: Nancy and Rebazar Munoz
Photos by TIS
"Alpha Nebula is a unique recording in the Muñoz canon of works that have been released so far. It's the most removed from the traditional idioms and styles of electric guitar music. It's also organized in a unique way. Post-production here is just as important as the inspired moments of the players' collective creation in the studio. After the session, Tisziji's visions were further elaborated through electronic soundscapes that were edited together with the original sessions to create a unified and complex, long-form work that exists in its totality. To compare it to a novel: you can dig the words, sentences, paragraphs and chapters of great writing - but you also must consider the work as a whole. It's the same here with the notes, phrases, and movements in relation to the entire CD. That's a startling development here, unprecedented so far in Tisziji's work: a whole for you to dig. To get the most out of this recording you must put yourself into the whole. Paradoxically: the whole that Tisziji presents for you, you must dig it yourself." -Henry Kaiser
"Whoa! Very intense—asteroids and meteors flying by. Ouch! An honor to be on this ground-breaking date with Tisziji. Totally original guitar playing. Huge universal energy—scary! Actually scary! Music is seldom scary. A real dose of Tisziji Muñoz, visiting places music rarely dares to go." -Bob Moses
 
Состав
Tisziji Munoz: guitar, piano, keyboard synths, slide & scream effects
Don Pate & John Lockwood: basses
Bob Moses & Franklin Kiermyer: drums
12.: duet featuring Tisziji Munoz and Bob Moses.
All other compositions with Tisziji Munoz on guitar feature Bob Moses and John Lockwood panned left and Franklin Kiermyer and Don Pate panned right.
По всем вопросам пишите личное сообщение пользователю M0p94ok.
19:58
156
Нет комментариев. Ваш будет первым!